The Cat Empire – Cinema




[Total: 0    Average: 0/5]

Artist: The Cat Empire
Year: 2010
Genre: Rock
Notes: Discogs
Add. Notes:
Cover incl.: Yes
Encoder: FLAC
Bitrate: ~900 kBit/s (44.1 kHz/16 Bit/s)
Log & Cue incl.: Yes
Size: 282,17 MB
Password: “slam” (without ” “)


All Downloads/Hosters are compatible

Download 1
Share-online.biz
Rapidgator.net
UploadEver.com
JustUpload.io
UsersDrive.com
Download 2
Share-online.biz
Rapidgator.net
UploadEver.com
JustUpload.io
UsersDrive.com
Download 3
Share-online.biz
Rapidgator.net
UploadEver.com
JustUpload.io
UsersDrive.com

Tracklist:

1 - Waiting - 3:08
2 - Falling - 4:09
3 - Feeling's Gone - 2:33
4 - Only Light - 4:38
5 - All Hell - 3:05
6 - Shoulders - 5:06
7 - The Heart Is A Cannibal - 4:05
8 - Reasonably Fine - 4:00
9 - Call Me Home - 4:06
10 - On My Way - 3:18
11 - Beyond All - 4:09

EAC-Log, CUE-Sheed & NFO:

Click to open spoiler
Exact Audio Copy V0.99 prebeta 5 from 4. May 2009

EAC extraction logfile from 25. June 2010, 16:13

The Cat Empire / Cinema

Used drive : PIONEER DVD-RW DVR-217 Adapter: 3 ID: 0

Read mode : Secure
Utilize accurate stream : Yes
Defeat audio cache : Yes
Make use of C2 pointers : No

Read offset correction : 96
Overread into Lead-In and Lead-Out : No
Fill up missing offset samples with silence : Yes
Delete leading and trailing silent blocks : No
Null samples used in CRC calculations : Yes
Used interface : Native Win32 interface for Win NT & 2000
Gap handling : Appended to previous track

Used output format : User Defined Encoder
Selected bitrate : 320 kBit/s
Quality : High
Add ID3 tag : No
Command line compressor : C:\Program Files (x86)\Exact Audio Copy\FLAC\FLAC.EXE
Additional command line options : -V -8 -T “artist=%a” -T “title=%t” -T “album=%g” -T “date=%y” -T “tracknumber=%n” -T “genre=%m” %s

TOC of the extracted CD

Track | Start | Length | Start sector | End sector
———————————————————
1 | 0:00.00 | 3:08.35 | 0 | 14134
2 | 3:08.35 | 4:09.04 | 14135 | 32813
3 | 7:17.39 | 2:33.18 | 32814 | 44306
4 | 9:50.57 | 4:38.16 | 44307 | 65172
5 | 14:28.73 | 3:05.00 | 65173 | 79047
6 | 17:33.73 | 5:05.45 | 79048 | 101967
7 | 22:39.43 | 4:05.31 | 101968 | 120373
8 | 26:44.74 | 3:59.72 | 120374 | 138370
9 | 30:44.71 | 4:05.71 | 138371 | 156816
10 | 34:50.67 | 3:17.71 | 156817 | 171662
11 | 38:08.63 | 4:09.15 | 171663 | 190352

Track 1

Filename I:\FLAC\The Cat Empire – 2010 – Cinema\01 – Waiting.wav

Pre-gap length 0:00:02.00

Peak level 100.0 %
Track quality 100.0 %
Test CRC 53CD0464
Copy CRC 53CD0464
Track not present in AccurateRip database
Copy OK

Track 2

Filename I:\FLAC\The Cat Empire – 2010 – Cinema\02 – Falling.wav

Peak level 100.0 %
Track quality 99.9 %
Test CRC E3093577
Copy CRC E3093577
Track not present in AccurateRip database
Copy OK

Track 3

Filename I:\FLAC\The Cat Empire – 2010 – Cinema\03 – Feeling’s Gone.wav

Peak level 99.2 %
Track quality 100.0 %
Test CRC 6C1C597C
Copy CRC 6C1C597C
Track not present in AccurateRip database
Copy OK

Track 4

Filename I:\FLAC\The Cat Empire – 2010 – Cinema\04 – Only Light.wav

Peak level 100.0 %
Track quality 100.0 %
Test CRC 9E501B84
Copy CRC 9E501B84
Track not present in AccurateRip database
Copy OK

Track 5

Filename I:\FLAC\The Cat Empire – 2010 – Cinema\05 – All Hell.wav

Peak level 99.8 %
Track quality 100.0 %
Test CRC 57612E32
Copy CRC 57612E32
Track not present in AccurateRip database
Copy OK

Track 6

Filename I:\FLAC\The Cat Empire – 2010 – Cinema\06 – Shoulders.wav

Peak level 100.0 %
Track quality 100.0 %
Test CRC 961F42F0
Copy CRC 961F42F0
Track not present in AccurateRip database
Copy OK

Track 7

Filename I:\FLAC\The Cat Empire – 2010 – Cinema\07 – The Heart is a Cannibal.wav

Peak level 98.5 %
Track quality 100.0 %
Test CRC 105C6BA2
Copy CRC 105C6BA2
Track not present in AccurateRip database
Copy OK

Track 8

Filename I:\FLAC\The Cat Empire – 2010 – Cinema\08 – Reasonably Fine.wav

Peak level 97.5 %
Track quality 100.0 %
Test CRC 5D8CBC63
Copy CRC 5D8CBC63
Track not present in AccurateRip database
Copy OK

Track 9

Filename I:\FLAC\The Cat Empire – 2010 – Cinema\09 – Call Me Home.wav

Peak level 98.0 %
Track quality 100.0 %
Test CRC 46F57C42
Copy CRC 46F57C42
Track not present in AccurateRip database
Copy OK

Track 10

Filename I:\FLAC\The Cat Empire – 2010 – Cinema\10 – On My Way.wav

Peak level 100.0 %
Track quality 100.0 %
Test CRC B1F48003
Copy CRC B1F48003
Track not present in AccurateRip database
Copy OK

Track 11

Filename I:\FLAC\The Cat Empire – 2010 – Cinema\11 – Beyond All.wav

Peak level 100.0 %
Track quality 100.0 %
Test CRC 1DE95EA0
Copy CRC 1DE95EA0
Track not present in AccurateRip database
Copy OK

None of the tracks are present in the AccurateRip database

No errors occurred

End of status report

REM GENRE “General Neo-Lounge”
REM DATE 2010
REM DISCID 8B09EA0B
REM COMMENT “ExactAudioCopy v0.99pb5”
FILE “01 – Waiting.wav” WAVE
TRACK 01 AUDIO
INDEX 01 00:00:00
FILE “02 – Falling.wav” WAVE
TRACK 02 AUDIO
INDEX 01 00:00:00
FILE “03 – Feeling’s Gone.wav” WAVE
TRACK 03 AUDIO
INDEX 01 00:00:00
FILE “04 – Only Light.wav” WAVE
TRACK 04 AUDIO
INDEX 01 00:00:00
FILE “05 – All Hell.wav” WAVE
TRACK 05 AUDIO
INDEX 01 00:00:00
FILE “06 – Shoulders.wav” WAVE
TRACK 06 AUDIO
INDEX 01 00:00:00
FILE “07 – The Heart is a Cannibal.wav” WAVE
TRACK 07 AUDIO
INDEX 01 00:00:00
FILE “08 – Reasonably Fine.wav” WAVE
TRACK 08 AUDIO
INDEX 01 00:00:00
FILE “09 – Call Me Home.wav” WAVE
TRACK 09 AUDIO
INDEX 01 00:00:00
FILE “10 – On My Way.wav” WAVE
TRACK 10 AUDIO
INDEX 01 00:00:00
FILE “11 – Beyond All.wav” WAVE
TRACK 11 AUDIO
INDEX 01 00:00:00

Spread the Download

Leave a Reply

Your email address will not be published. Required fields are marked *

Enter the text from the image below
 

This site uses Akismet to reduce spam. Learn how your comment data is processed.