The Birthday Massacre – Walking With Strangers




Artist: The Birthday Massacre
Year: 2007
Genre: Rock
Notes: Discogs
Add. Notes:
Cover incl.: Yes
Encoder: FLAC
Bitrate: ~1000 kBit/s (44.1 kHz/16 Bit/s)
Log & Cue incl.: Yes
Size: 468,49 MB
Password: “slam” (without ” “)


All Downloads/Hosters are compatible

Download 1
Turbobit.net
KatFile.com
Rapidgator.net
Download 2
Turbobit.net
KatFile.com
Rapidgator.net

Tracklist:

1 - Kill The Lights - 3:56
2 - Goodnight - 4:02
3 - Falling Down - 4:12
4 - Unfamiliar - 3:18
5 - Red Stars - 3:41
6 - Looking Glass - 4:25
7 - Science - 4:04
8 - Remember Me - 4:07
9 - To Die For - 5:05
10 - Walking With Strangers - 3:55
11 - Weekend - 3:53
12 - Movie - 5:03

EAC-Log, CUE-Sheed & NFO:

Click to open spoiler
Exact Audio Copy V0.99 prebeta 3 from 28. July 2007

EAC extraction logfile from 6. September 2007, 21:27

The Birthday Massacre / Walking With Strangers

Used drive : LITE-ON DVDRW SHW-1635S Adapter: 0 ID: 1

Read mode : Secure
Utilize accurate stream : Yes
Defeat audio cache : Yes
Make use of C2 pointers : No

Read offset correction : 6
Overread into Lead-In and Lead-Out : No
Fill up missing offset samples with silence : Yes
Delete leading and trailing silent blocks : No
Null samples used in CRC calculations : Yes
Used interface : Native Win32 interface for Win NT & 2000
Gap handling : Appended to previous track

Used output format : User Defined Encoder
Selected bitrate : 128 kBit/s
Quality : High
Add ID3 tag : No
Command line compressor : C:\Program Files (x86)\Exact Audio Copy\FLAC\FLAC.EXE
Additional command line options : -V -8 -T “artist=%a” -T “title=%t” -T “album=%g” -T “date=%y” -T “tracknumber=%n” -T “genre=%m” %s

TOC of the extracted CD

Track | Start | Length | Start sector | End sector
———————————————————
1 | 0:00.00 | 3:55.39 | 0 | 17663
2 | 3:55.39 | 4:02.57 | 17664 | 35870
3 | 7:58.21 | 4:12.35 | 35871 | 54805
4 | 12:10.56 | 3:18.67 | 54806 | 69722
5 | 15:29.48 | 3:41.20 | 69723 | 86317
6 | 19:10.68 | 4:25.73 | 86318 | 106265
7 | 23:36.66 | 4:04.19 | 106266 | 124584
8 | 27:41.10 | 4:07.31 | 124585 | 143140
9 | 31:48.41 | 5:05.18 | 143141 | 166033
10 | 36:53.59 | 3:55.49 | 166034 | 183707
11 | 40:49.33 | 3:53.21 | 183708 | 201203
12 | 44:42.54 | 5:03.00 | 201204 | 223928

Track 1

Filename D:\My Music\Albums\Ripped\The Birthday Massacre-2007-Walking With Strangers\01-Kill_The_Lights.wav

Pre-gap length 0:00:02.00

Peak level 98.8 %
Track quality 100.0 %
Test CRC 7385A71D
Copy CRC 7385A71D
Copy OK

Track 2

Filename D:\My Music\Albums\Ripped\The Birthday Massacre-2007-Walking With Strangers\02-Goodnight.wav

Peak level 100.0 %
Track quality 99.9 %
Test CRC F2895A86
Copy CRC F2895A86
Copy OK

Track 3

Filename D:\My Music\Albums\Ripped\The Birthday Massacre-2007-Walking With Strangers\03-Falling_Down.wav

Peak level 98.5 %
Track quality 100.0 %
Test CRC 76576F6D
Copy CRC 76576F6D
Copy OK

Track 4

Filename D:\My Music\Albums\Ripped\The Birthday Massacre-2007-Walking With Strangers\04-Unfamiliar.wav

Peak level 100.0 %
Track quality 99.9 %
Test CRC DECE7263
Copy CRC DECE7263
Copy OK

Track 5

Filename D:\My Music\Albums\Ripped\The Birthday Massacre-2007-Walking With Strangers\05-Red_Stars.wav

Peak level 100.0 %
Track quality 100.0 %
Test CRC EF54F869
Copy CRC EF54F869
Copy OK

Track 6

Filename D:\My Music\Albums\Ripped\The Birthday Massacre-2007-Walking With Strangers\06-Looking_Glass.wav

Peak level 100.0 %
Track quality 99.9 %
Test CRC 2B85CFB2
Copy CRC 2B85CFB2
Copy OK

Track 7

Filename D:\My Music\Albums\Ripped\The Birthday Massacre-2007-Walking With Strangers\07-Science.wav

Peak level 100.0 %
Track quality 100.0 %
Test CRC EB2FD297
Copy CRC EB2FD297
Copy OK

Track 8

Filename D:\My Music\Albums\Ripped\The Birthday Massacre-2007-Walking With Strangers\08-Remember_Me.wav

Peak level 100.0 %
Track quality 100.0 %
Test CRC 1788CD93
Copy CRC 1788CD93
Copy OK

Track 9

Filename D:\My Music\Albums\Ripped\The Birthday Massacre-2007-Walking With Strangers\09-To_Die_For.wav

Peak level 100.0 %
Track quality 100.0 %
Test CRC ED5E0CDD
Copy CRC ED5E0CDD
Copy OK

Track 10

Filename D:\My Music\Albums\Ripped\The Birthday Massacre-2007-Walking With Strangers\10-Walking_With_Strangers.wav

Peak level 100.0 %
Track quality 100.0 %
Test CRC F9C11626
Copy CRC F9C11626
Copy OK

Track 11

Filename D:\My Music\Albums\Ripped\The Birthday Massacre-2007-Walking With Strangers\11-Weekend.wav

Peak level 98.8 %
Track quality 100.0 %
Test CRC 1948AFCB
Copy CRC 1948AFCB
Copy OK

Track 12

Filename D:\My Music\Albums\Ripped\The Birthday Massacre-2007-Walking With Strangers\12-Movie.wav

Peak level 100.0 %
Track quality 100.0 %
Test CRC 97722413
Copy CRC 97722413
Copy OK

No errors occurred

End of status report

REM GENRE Rock
REM DATE 2007
REM DISCID 8F0BA90C
REM COMMENT “ExactAudioCopy v0.99pb3”
PERFORMER “The Birthday Massacre”
TITLE “Walking With Strangers”
FILE “01 – Kill The Lights.wav” WAVE
TRACK 01 AUDIO
TITLE “Kill The Lights”
PERFORMER “The Birthday Massacre”
FLAGS DCP
INDEX 01 00:00:00
FILE “02 – Goodnight.wav” WAVE
TRACK 02 AUDIO
TITLE “Goodnight”
PERFORMER “The Birthday Massacre”
FLAGS DCP
INDEX 01 00:00:00
FILE “03 – Falling Down.wav” WAVE
TRACK 03 AUDIO
TITLE “Falling Down”
PERFORMER “The Birthday Massacre”
FLAGS DCP
INDEX 01 00:00:00
FILE “04 – Unfamiliar.wav” WAVE
TRACK 04 AUDIO
TITLE “Unfamiliar”
PERFORMER “The Birthday Massacre”
FLAGS DCP
INDEX 01 00:00:00
FILE “05 – Red Stars.wav” WAVE
TRACK 05 AUDIO
TITLE “Red Stars”
PERFORMER “The Birthday Massacre”
FLAGS DCP
INDEX 01 00:00:00
FILE “06 – Looking Glass.wav” WAVE
TRACK 06 AUDIO
TITLE “Looking Glass”
PERFORMER “The Birthday Massacre”
FLAGS DCP
INDEX 01 00:00:00
FILE “07 – Science.wav” WAVE
TRACK 07 AUDIO
TITLE “Science”
PERFORMER “The Birthday Massacre”
FLAGS DCP
INDEX 01 00:00:00
FILE “08 – Remember Me.wav” WAVE
TRACK 08 AUDIO
TITLE “Remember Me”
PERFORMER “The Birthday Massacre”
FLAGS DCP
INDEX 01 00:00:00
FILE “09 – To Die For.wav” WAVE
TRACK 09 AUDIO
TITLE “To Die For”
PERFORMER “The Birthday Massacre”
FLAGS DCP
INDEX 01 00:00:00
FILE “10 – Walking With Strangers.wav” WAVE
TRACK 10 AUDIO
TITLE “Walking With Strangers”
PERFORMER “The Birthday Massacre”
FLAGS DCP
INDEX 01 00:00:00
FILE “11 – Weekend.wav” WAVE
TRACK 11 AUDIO
TITLE “Weekend”
PERFORMER “The Birthday Massacre”
FLAGS DCP
INDEX 01 00:00:00
FILE “12 – Movie.wav” WAVE
TRACK 12 AUDIO
TITLE “Movie”
PERFORMER “The Birthday Massacre”
FLAGS DCP
INDEX 01 00:00:00


Leave a Reply

Your email address will not be published. Required fields are marked *

Enter the text from the image below
 

This site uses Akismet to reduce spam. Learn how your comment data is processed.