The Birthday Massacre – Violet (Reissue)




[Total: 0    Average: 0/5]

Artist: The Birthday Massacre
Year: 2004/2005
Genre: Rock
Notes: Discogs
Add. Notes: Reissue
Cover incl.: Yes
Encoder: FLAC
Bitrate: ~900 kBit/s (44.1 kHz/16 Bit/s)
Log & Cue incl.: Yes
Size: 333,93 MB
Password: “slam” (without ” “)


All Downloads/Hosters are compatible

Download 1
Share-online.biz
KatFile.com
Rapidgator.net
Download 2
Share-online.biz
KatFile.com
Rapidgator.net

Tracklist:

1 - Prologue - 0:38
2 - Lovers End - 4:14
3 - Happy Birthday - 3:39
4 - Horror Show - 4:06
5 - Violet - 3:37
6 - Red - 1:11
7 - Play Dead - 4:47
8 - Blue - 4:30
9 - Video Kid - 4:34
10 - The Dream - 3:51
11 - Black - 1:29
12 - Holiday - 5:14
13 - Nevermind - 4:35

EAC-Log, CUE-Sheed & NFO:

Click to open spoiler
Exact Audio Copy V0.99 prebeta 5 from 4. May 2009

EAC extraction logfile from 18. June 2010, 12:57

The Birthday Massacre / Violet

Used drive : HL-DT-STRW/DVD GCC-4247N Adapter: 1 ID: 0

Read mode : Secure
Utilize accurate stream : Yes
Defeat audio cache : Yes
Make use of C2 pointers : No

Read offset correction : 102
Overread into Lead-In and Lead-Out : No
Fill up missing offset samples with silence : Yes
Delete leading and trailing silent blocks : No
Null samples used in CRC calculations : Yes
Used interface : Native Win32 interface for Win NT & 2000
Gap handling : Appended to previous track

Used output format : User Defined Encoder
Selected bitrate : 320 kBit/s
Quality : High
Add ID3 tag : No
Command line compressor : C:\Program Files\FLAC\flac.exe
Additional command line options : -V -8 -T “artist=%a” -T “title=%t” -T “album=%g” -T “date=%y” -T “tracknumber=%n” -T “genre=%m” %s

TOC of the extracted CD

Track | Start | Length | Start sector | End sector
———————————————————
1 | 0:00.00 | 0:38.26 | 0 | 2875
2 | 0:38.26 | 4:14.20 | 2876 | 21945
3 | 4:52.46 | 3:39.65 | 21946 | 38435
4 | 8:32.36 | 4:06.12 | 38436 | 56897
5 | 12:38.48 | 3:37.07 | 56898 | 73179
6 | 16:15.55 | 1:11.14 | 73180 | 78518
7 | 17:26.69 | 4:47.01 | 78519 | 100044
8 | 22:13.70 | 4:30.53 | 100045 | 120347
9 | 26:44.48 | 4:34.39 | 120348 | 140936
10 | 31:19.12 | 3:51.61 | 140937 | 158322
11 | 35:10.73 | 1:29.24 | 158323 | 165021
12 | 36:40.22 | 5:14.42 | 165022 | 188613
13 | 41:54.64 | 4:36.02 | 188614 | 209315

Track 1

Filename H:\The Birthday Massacre – 2005 – Violet\01 – Prologue.wav

Pre-gap length 0:00:02.00

Peak level 39.4 %
Track quality 100.0 %
Test CRC C4180022
Copy CRC C4180022
Accurately ripped (confidence 19) [DB614EF3]
Copy OK

Track 2

Filename H:\The Birthday Massacre – 2005 – Violet\02 – Lovers End.wav

Peak level 98.8 %
Track quality 100.0 %
Test CRC 0AFE7141
Copy CRC 0AFE7141
Accurately ripped (confidence 20) [550DF2AB]
Copy OK

Track 3

Filename H:\The Birthday Massacre – 2005 – Violet\03 – Happy Birthday.wav

Peak level 99.4 %
Track quality 100.0 %
Test CRC 8334ADB6
Copy CRC 8334ADB6
Accurately ripped (confidence 20) [FDDEA48E]
Copy OK

Track 4

Filename H:\The Birthday Massacre – 2005 – Violet\04 – Horror Show.wav

Peak level 100.0 %
Track quality 100.0 %
Test CRC E509F9AD
Copy CRC E509F9AD
Accurately ripped (confidence 20) [4C25F246]
Copy OK

Track 5

Filename H:\The Birthday Massacre – 2005 – Violet\05 – Violet.wav

Peak level 99.0 %
Track quality 100.0 %
Test CRC 743695E5
Copy CRC 743695E5
Accurately ripped (confidence 20) [45316791]
Copy OK

Track 6

Filename H:\The Birthday Massacre – 2005 – Violet\06 – Red.wav

Peak level 36.6 %
Track quality 100.0 %
Test CRC 6065DDFB
Copy CRC 6065DDFB
Accurately ripped (confidence 20) [27FB55A8]
Copy OK

Track 7

Filename H:\The Birthday Massacre – 2005 – Violet\07 – Play Dead.wav

Peak level 100.0 %
Track quality 100.0 %
Test CRC E4B1D8FA
Copy CRC E4B1D8FA
Accurately ripped (confidence 20) [3B69181A]
Copy OK

Track 8

Filename H:\The Birthday Massacre – 2005 – Violet\08 – Blue.wav

Peak level 98.8 %
Track quality 100.0 %
Test CRC 61B279B0
Copy CRC 61B279B0
Accurately ripped (confidence 20) [4518E232]
Copy OK

Track 9

Filename H:\The Birthday Massacre – 2005 – Violet\09 – Video Kid.wav

Peak level 98.8 %
Track quality 100.0 %
Test CRC A0F3C0F9
Copy CRC A0F3C0F9
Accurately ripped (confidence 20) [3AD266BF]
Copy OK

Track 10

Filename H:\The Birthday Massacre – 2005 – Violet\10 – The Dream.wav

Peak level 98.8 %
Track quality 100.0 %
Test CRC 5087E84C
Copy CRC 5087E84C
Accurately ripped (confidence 20) [FE0254E1]
Copy OK

Track 11

Filename H:\The Birthday Massacre – 2005 – Violet\11 – Black.wav

Peak level 100.0 %
Track quality 99.8 %
Test CRC 499DF090
Copy CRC 499DF090
Accurately ripped (confidence 20) [6ADD5828]
Copy OK

Track 12

Filename H:\The Birthday Massacre – 2005 – Violet\12 – Holiday.wav

Peak level 98.8 %
Track quality 100.0 %
Test CRC 593582D6
Copy CRC 593582D6
Accurately ripped (confidence 20) [656D0B61]
Copy OK

Track 13

Filename H:\The Birthday Massacre – 2005 – Violet\13 – Nevermind.wav

Peak level 98.8 %
Track quality 100.0 %
Test CRC 14CECD5D
Copy CRC 14CECD5D
Accurately ripped (confidence 20) [9C9EA73D]
Copy OK

All tracks accurately ripped

No errors occurred

End of status report

REM GENRE Synth Rock/Gothic Rock/Alternative Rock
REM DATE 2005
REM DISCID 950AE60D
REM COMMENT “ExactAudioCopy v0.99pb5”
PERFORMER “The Birthday Massacre”
TITLE “Violet”
FILE “01 – Prologue.wav” WAVE
TRACK 01 AUDIO
TITLE “Prologue”
PERFORMER “The Birthday Massacre”
INDEX 01 00:00:00
FILE “02 – Lovers End.wav” WAVE
TRACK 02 AUDIO
TITLE “Lovers End”
PERFORMER “The Birthday Massacre”
INDEX 01 00:00:00
FILE “03 – Happy Birthday.wav” WAVE
TRACK 03 AUDIO
TITLE “Happy Birthday”
PERFORMER “The Birthday Massacre”
INDEX 01 00:00:00
FILE “04 – Horror Show.wav” WAVE
TRACK 04 AUDIO
TITLE “Horror Show”
PERFORMER “The Birthday Massacre”
INDEX 01 00:00:00
FILE “05 – Violet.wav” WAVE
TRACK 05 AUDIO
TITLE “Violet”
PERFORMER “The Birthday Massacre”
INDEX 01 00:00:00
FILE “06 – Red.wav” WAVE
TRACK 06 AUDIO
TITLE “Red”
PERFORMER “The Birthday Massacre”
INDEX 01 00:00:00
FILE “07 – Play Dead.wav” WAVE
TRACK 07 AUDIO
TITLE “Play Dead”
PERFORMER “The Birthday Massacre”
INDEX 01 00:00:00
FILE “08 – Blue.wav” WAVE
TRACK 08 AUDIO
TITLE “Blue”
PERFORMER “The Birthday Massacre”
INDEX 01 00:00:00
FILE “09 – Video Kid.wav” WAVE
TRACK 09 AUDIO
TITLE “Video Kid”
PERFORMER “The Birthday Massacre”
INDEX 01 00:00:00
FILE “10 – The Dream.wav” WAVE
TRACK 10 AUDIO
TITLE “The Dream”
PERFORMER “The Birthday Massacre”
INDEX 01 00:00:00
FILE “11 – Black.wav” WAVE
TRACK 11 AUDIO
TITLE “Black”
PERFORMER “The Birthday Massacre”
INDEX 01 00:00:00
FILE “12 – Holiday.wav” WAVE
TRACK 12 AUDIO
TITLE “Holiday”
PERFORMER “The Birthday Massacre”
INDEX 01 00:00:00
FILE “13 – Nevermind.wav” WAVE
TRACK 13 AUDIO
TITLE “Nevermind”
PERFORMER “The Birthday Massacre”
INDEX 01 00:00:00


Spread the Download

Leave a Reply

Your email address will not be published. Required fields are marked *

Enter the text from the image below
 

This site uses Akismet to reduce spam. Learn how your comment data is processed.