The Birthday Massacre – Under Your Spell




Artist: The Birthday Massacre
Year: 2017
Genre: Rock
Notes: Discogs
Add. Notes:
Cover incl.: Yes
Encoder: FLAC
Bitrate: ~1000 kBit/s (44.1 kHz/16 Bit/s)
Log & Cue incl.: Yes
Size: 307,09 MB
Password: “slam” (without ” “)


All Downloads/Hosters are compatible

Download 1
Turbobit.net
KatFile.com
Rapidgator.net
Usersdrive.com
Download 2
Turbobit.net
KatFile.com
Rapidgator.net
Usersdrive.com

Tracklist:

1 - One - 3:34
2 - Under Your Spell - 4:31
3 - All Of Nothing - 3:30
4 - Without You - 4:32
5 - Counterpane - 3:31
6 - Unkind - 3:56
7 - Games - 3:39
8 - Hex - 3:37
9 - No Tomorrow - 3:20
10 - The Lowest Low - 3:53
11 - Endless - 3:13

EAC-Log, CUE-Sheed & NFO:

Click to open spoiler
Exact Audio Copy V1.1 from 23. June 2015

EAC extraction logfile from 8. June 2017, 20:17

The Birthday Massacre / Under Your Spell

Used drive : HL-DT-STDVDRAM GT50N Adapter: 1 ID: 0

Read mode : Secure
Utilize accurate stream : Yes
Defeat audio cache : Yes
Make use of C2 pointers : No

Read offset correction : 103
Overread into Lead-In and Lead-Out : No
Fill up missing offset samples with silence : Yes
Delete leading and trailing silent blocks : No
Null samples used in CRC calculations : Yes
Used interface : Native Win32 interface for Win NT & 2000
Gap handling : Appended to previous track

Used output format : User Defined Encoder
Selected bitrate : 1024 kBit/s
Quality : High
Add ID3 tag : No
Command line compressor : C:\Program Files (x86)\Exact Audio Copy\Flac\flac.exe
Additional command line options : -8 -e -V -T “ARTIST=%artist%” -T “TITLE=%title%” -T “ALBUM=%albumtitle%” -T “DATE=%year%” -T “TRACKNUMBER=%tracknr%” -T “GENRE=%genre%” -T “PERFORMER=%albuminterpret%” -T “COMPOSER=%composer%” %haslyrics%–tag-from-file=LYRICS=”%lyricsfile%”%haslyrics% -T “ALBUMARTIST=%albumartist%” -T “DISCNUMBER=%cdnumber%” -T “TOTALDISCS=%totalcds%” -T “TOTALTRACKS=%numtracks%” -T “COMMENT=%comment%” %source% -o %dest%

TOC of the extracted CD

Track | Start | Length | Start sector | End sector
———————————————————
1 | 0:00.00 | 3:34.51 | 0 | 16100
2 | 3:34.51 | 4:31.06 | 16101 | 36431
3 | 8:05.57 | 3:30.56 | 36432 | 52237
4 | 11:36.38 | 4:32.03 | 52238 | 72640
5 | 16:08.41 | 3:31.69 | 72641 | 88534
6 | 19:40.35 | 3:56.04 | 88535 | 106238
7 | 23:36.39 | 3:39.45 | 106239 | 122708
8 | 27:16.09 | 3:37.23 | 122709 | 139006
9 | 30:53.32 | 3:20.03 | 139007 | 154009
10 | 34:13.35 | 3:53.54 | 154010 | 171538
11 | 38:07.14 | 3:13.48 | 171539 | 186061

Track 1

Filename C:\Rips v2\The Birthday Massacre – Under Your Spell (FLAC)\01 – One.wav

Pre-gap length 0:00:02.00

Peak level 100.0 %
Extraction speed 1.2 X
Track quality 100.0 %
Test CRC 60420520
Copy CRC 60420520
Track not present in AccurateRip database
Copy OK

Track 2

Filename C:\Rips v2\The Birthday Massacre – Under Your Spell (FLAC)\02 – Under Your Spell.wav

Peak level 100.0 %
Extraction speed 1.4 X
Track quality 100.0 %
Test CRC CC68CD73
Copy CRC CC68CD73
Track not present in AccurateRip database
Copy OK

Track 3

Filename C:\Rips v2\The Birthday Massacre – Under Your Spell (FLAC)\03 – All of Nothing.wav

Peak level 100.0 %
Extraction speed 1.5 X
Track quality 100.0 %
Test CRC 632E1E3E
Copy CRC 632E1E3E
Track not present in AccurateRip database
Copy OK

Track 4

Filename C:\Rips v2\The Birthday Massacre – Under Your Spell (FLAC)\04 – Without You.wav

Peak level 100.0 %
Extraction speed 1.7 X
Track quality 100.0 %
Test CRC 8CDC0F2E
Copy CRC 8CDC0F2E
Track not present in AccurateRip database
Copy OK

Track 5

Filename C:\Rips v2\The Birthday Massacre – Under Your Spell (FLAC)\05 – Counterpane.wav

Peak level 100.0 %
Extraction speed 1.7 X
Track quality 100.0 %
Test CRC 25C928C1
Copy CRC 25C928C1
Track not present in AccurateRip database
Copy OK

Track 6

Filename C:\Rips v2\The Birthday Massacre – Under Your Spell (FLAC)\06 – Unkind.wav

Peak level 100.0 %
Extraction speed 1.6 X
Track quality 99.9 %
Test CRC B0106A47
Copy CRC B0106A47
Track not present in AccurateRip database
Copy OK

Track 7

Filename C:\Rips v2\The Birthday Massacre – Under Your Spell (FLAC)\07 – Games.wav

Peak level 100.0 %
Extraction speed 1.9 X
Track quality 100.0 %
Test CRC 63F147EA
Copy CRC 63F147EA
Track not present in AccurateRip database
Copy OK

Track 8

Filename C:\Rips v2\The Birthday Massacre – Under Your Spell (FLAC)\08 – Hex.wav

Peak level 100.0 %
Extraction speed 2.0 X
Track quality 100.0 %
Test CRC 3CD3FD4B
Copy CRC 3CD3FD4B
Track not present in AccurateRip database
Copy OK

Track 9

Filename C:\Rips v2\The Birthday Massacre – Under Your Spell (FLAC)\09 – No Tomorrow.wav

Peak level 100.0 %
Extraction speed 2.0 X
Track quality 100.0 %
Test CRC 723C9263
Copy CRC 723C9263
Track not present in AccurateRip database
Copy OK

Track 10

Filename C:\Rips v2\The Birthday Massacre – Under Your Spell (FLAC)\10 – The Lowest Low.wav

Peak level 100.0 %
Extraction speed 1.9 X
Track quality 99.9 %
Test CRC FE8AECBA
Copy CRC FE8AECBA
Track not present in AccurateRip database
Copy OK

Track 11

Filename C:\Rips v2\The Birthday Massacre – Under Your Spell (FLAC)\11 – Endless.wav

Peak level 100.0 %
Extraction speed 2.2 X
Track quality 100.0 %
Test CRC 1A179214
Copy CRC 1A179214
Track not present in AccurateRip database
Copy OK

None of the tracks are present in the AccurateRip database

No errors occurred

End of status report

—- CUETools DB Plugin V2.1.6

[CTDB TOCID: QNoQzwEevbZ9BKiiLiGhTzUR6rU-] found
Submit result: QNoQzwEevbZ9BKiiLiGhTzUR6rU- has been confirmed
Track | CTDB Status
1 | (2/2) Accurately ripped
2 | (2/2) Accurately ripped
3 | (2/2) Accurately ripped
4 | (2/2) Accurately ripped
5 | (2/2) Accurately ripped
6 | (2/2) Accurately ripped
7 | (2/2) Accurately ripped
8 | (2/2) Accurately ripped
9 | (2/2) Accurately ripped
10 | (2/2) Accurately ripped
11 | (2/2) Accurately ripped

==== Log checksum 1D13D62A3876A59827B2751B06212F05301237D7FC216AF2543988F4E1CB1469 ====

REM DATE 2017
REM DISCID A509B00B
REM COMMENT “ExactAudioCopy v1.1”
CATALOG 0782388107921
PERFORMER “The Birthday Massacre”
TITLE “Under Your Spell”
FILE “01 – One.wav” WAVE
TRACK 01 AUDIO
TITLE “One”
PERFORMER “The Birthday Massacre”
FLAGS DCP
INDEX 01 00:00:00
FILE “02 – Under Your Spell.wav” WAVE
TRACK 02 AUDIO
TITLE “Under Your Spell”
PERFORMER “The Birthday Massacre”
ISRC US57M1707902
FLAGS DCP
INDEX 01 00:00:00
FILE “03 – All of Nothing.wav” WAVE
TRACK 03 AUDIO
TITLE “All of Nothing”
PERFORMER “The Birthday Massacre”
ISRC US57M1707903
FLAGS DCP
INDEX 01 00:00:00
FILE “04 – Without You.wav” WAVE
TRACK 04 AUDIO
TITLE “Without You”
PERFORMER “The Birthday Massacre”
ISRC US57M1707904
FLAGS DCP
INDEX 01 00:00:00
FILE “05 – Counterpane.wav” WAVE
TRACK 05 AUDIO
TITLE “Counterpane”
PERFORMER “The Birthday Massacre”
ISRC US57M1707905
FLAGS DCP
INDEX 01 00:00:00
FILE “06 – Unkind.wav” WAVE
TRACK 06 AUDIO
TITLE “Unkind”
PERFORMER “The Birthday Massacre”
ISRC US57M1707906
FLAGS DCP
INDEX 01 00:00:00
FILE “07 – Games.wav” WAVE
TRACK 07 AUDIO
TITLE “Games”
PERFORMER “The Birthday Massacre”
ISRC US57M1707907
FLAGS DCP
INDEX 01 00:00:00
FILE “08 – Hex.wav” WAVE
TRACK 08 AUDIO
TITLE “Hex”
PERFORMER “The Birthday Massacre”
ISRC US57M1707908
FLAGS DCP
INDEX 01 00:00:00
FILE “09 – No Tomorrow.wav” WAVE
TRACK 09 AUDIO
TITLE “No Tomorrow”
PERFORMER “The Birthday Massacre”
ISRC US57M1707909
FLAGS DCP
INDEX 01 00:00:00
FILE “10 – The Lowest Low.wav” WAVE
TRACK 10 AUDIO
TITLE “The Lowest Low”
PERFORMER “The Birthday Massacre”
ISRC US57M1707910
FLAGS DCP
INDEX 01 00:00:00
FILE “11 – Endless.wav” WAVE
TRACK 11 AUDIO
TITLE “Endless”
PERFORMER “The Birthday Massacre”
ISRC US57M1707911
FLAGS DCP
INDEX 01 00:00:00


Leave a Reply

Your email address will not be published. Required fields are marked *

This site uses Akismet to reduce spam. Learn how your comment data is processed.