The Birthday Massacre – Show And Tell




Artist: The Birthday Massacre
Year: 2009
Genre: Alternative
Notes: Discogs
Add. Notes:
Cover incl.: No
Encoder: FLAC
Bitrate: ~1000 kBit/s (44.1 kHz/16 Bit/s)
Log & Cue incl.: Yes
Size: 458,78 MB
Password: “slam” (without ” “)


All Downloads/Hosters are compatible

Download 1
Turbobit.net
KatFile.com
Rapidgator.net
Download 2
Turbobit.net
KatFile.com
Rapidgator.net

Tracklist:

1 - Before Dark - 1:25
2 - Video Kid - 4:27
3 - Lover's End - 4:20
4 - Goodnight - 4:21
5 - Falling Down - 4:13
6 - Violet - 3:38
7 - Red Stars - 3:49
8 - Looking Glass - 4:22
9 - Remember Me - 4:04
10 - Unfamiliar - 3:26
11 - Walking With Strangers - 3:52
12 - Weekend - 3:53
13 - Horror Show - 4:07
14 - Kill The Lights - 4:35
15 - Blue - 4:30
16 - Happy Birthday - 4:13

EAC-Log, CUE-Sheed & NFO:

Click to open spoiler
EAC extraction logfile from 10. May 2009, 22:17 for CD
The Birthday Massacre / Show And Tell

Used drive : TSSTcorpCDDVDW SE-S204N Adapter: 5 ID: 0
Read mode : Secure with NO C2, accurate stream, disable cache
Read offset correction : 6
Overread into Lead-In and Lead-Out : No

Used output format : Internal WAV Routines
44.100 Hz; 16 Bit; Stereo

Other options :
Fill up missing offset samples with silence : Yes
Delete leading and trailing silent blocks : No
Installed external ASPI interface

Track 1
Filename C:\The Birthday Massacre – Show And Tell\01 – The Birthday Massacre – Before Dark.wav

Pre-gap length 0:00:02.00

Peak level 100.0 %
Track quality 100.0 %
Test CRC BF4FFD65
Copy CRC BF4FFD65
Copy OK

Track 2
Filename C:\The Birthday Massacre – Show And Tell\02 – The Birthday Massacre – Video Kid.wav

Peak level 100.0 %
Track quality 100.0 %
Test CRC 409E39EE
Copy CRC 409E39EE
Copy OK

Track 3
Filename C:\The Birthday Massacre – Show And Tell\03 – The Birthday Massacre – Lovers End.wav

Peak level 100.0 %
Track quality 100.0 %
Test CRC 7521D646
Copy CRC 7521D646
Copy OK

Track 4
Filename C:\The Birthday Massacre – Show And Tell\04 – The Birthday Massacre – Goodnight.wav

Peak level 100.0 %
Track quality 100.0 %
Test CRC 57B9CEBE
Copy CRC 57B9CEBE
Copy OK

Track 5
Filename C:\The Birthday Massacre – Show And Tell\05 – The Birthday Massacre – Falling Down.wav

Peak level 100.0 %
Track quality 100.0 %
Test CRC B15AC337
Copy CRC B15AC337
Copy OK

Track 6
Filename C:\The Birthday Massacre – Show And Tell\06 – The Birthday Massacre – Violet.wav

Peak level 100.0 %
Track quality 100.0 %
Test CRC D7CBE202
Copy CRC D7CBE202
Copy OK

Track 7
Filename C:\The Birthday Massacre – Show And Tell\07 – The Birthday Massacre – Red Stars.wav

Peak level 100.0 %
Track quality 100.0 %
Test CRC 887D73A0
Copy CRC 887D73A0
Copy OK

Track 8
Filename C:\The Birthday Massacre – Show And Tell\08 – The Birthday Massacre – Looking Glass.wav

Peak level 100.0 %
Track quality 99.9 %
Test CRC A7815CF9
Copy CRC A7815CF9
Copy OK

Track 9
Filename C:\The Birthday Massacre – Show And Tell\09 – The Birthday Massacre – Remember Me.wav

Peak level 100.0 %
Track quality 100.0 %
Test CRC 90812293
Copy CRC 90812293
Copy OK

Track 10
Filename C:\The Birthday Massacre – Show And Tell\10 – The Birthday Massacre – Unfamiliar.wav

Peak level 100.0 %
Track quality 100.0 %
Test CRC 931721F4
Copy CRC 931721F4
Copy OK

Track 11
Filename C:\The Birthday Massacre – Show And Tell\11 – The Birthday Massacre – Walking with Strangers.wav

Peak level 100.0 %
Track quality 100.0 %
Test CRC 0AC95FC1
Copy CRC 0AC95FC1
Copy OK

Track 12
Filename C:\The Birthday Massacre – Show And Tell\12 – The Birthday Massacre – Weekend.wav

Peak level 100.0 %
Track quality 100.0 %
Test CRC DBA741F6
Copy CRC DBA741F6
Copy OK

Track 13
Filename C:\The Birthday Massacre – Show And Tell\13 – The Birthday Massacre – Horror Show.wav

Peak level 100.0 %
Track quality 99.9 %
Test CRC 5CDDCAB8
Copy CRC 5CDDCAB8
Copy OK

Track 14
Filename C:\The Birthday Massacre – Show And Tell\14 – The Birthday Massacre – Kill The Lights.wav

Peak level 100.0 %
Track quality 100.0 %
Test CRC 24F6E612
Copy CRC 24F6E612
Copy OK

Track 15
Filename C:\The Birthday Massacre – Show And Tell\15 – The Birthday Massacre – Blue.wav

Pre-gap length 0:00:31.30

Peak level 100.0 %
Track quality 100.0 %
Test CRC 83C5A2FE
Copy CRC 83C5A2FE
Copy OK

Track 16
Filename C:\The Birthday Massacre – Show And Tell\16 – The Birthday Massacre – Happy Birthday.wav

Peak level 100.0 %
Track quality 100.0 %
Test CRC D34B1F65
Copy CRC D34B1F65
Copy OK

No errors occured

End of status report

REM GENRE “Synth Rock/Gothic Rock/Alternative Rock”
REM DATE 2009
REM DISCID E60EDC10
REM COMMENT “ExactAudioCopy v0.95b4”
FILE “01 – Before Dark.wav” WAVE
TRACK 01 AUDIO
FLAGS DCP
INDEX 01 00:00:00
FILE “02 – Video Kid.wav” WAVE
TRACK 02 AUDIO
FLAGS DCP
INDEX 01 00:00:00
FILE “03 – Lovers End.wav” WAVE
TRACK 03 AUDIO
FLAGS DCP
INDEX 01 00:00:00
FILE “04 – Goodnight.wav” WAVE
TRACK 04 AUDIO
FLAGS DCP
INDEX 01 00:00:00
FILE “05 – Falling Down.wav” WAVE
TRACK 05 AUDIO
FLAGS DCP
INDEX 01 00:00:00
FILE “06 – Violet.wav” WAVE
TRACK 06 AUDIO
FLAGS DCP
INDEX 01 00:00:00
FILE “07 – Red Stars.wav” WAVE
TRACK 07 AUDIO
FLAGS DCP
INDEX 01 00:00:00
FILE “08 – Looking Glass.wav” WAVE
TRACK 08 AUDIO
FLAGS DCP
INDEX 01 00:00:00
FILE “09 – Remember Me.wav” WAVE
TRACK 09 AUDIO
FLAGS DCP
INDEX 01 00:00:00
FILE “10 – Unfamiliar.wav” WAVE
TRACK 10 AUDIO
FLAGS DCP
INDEX 01 00:00:00
FILE “11 – Walking With Strangers.wav” WAVE
TRACK 11 AUDIO
FLAGS DCP
INDEX 01 00:00:00
FILE “12 – Weekend.wav” WAVE
TRACK 12 AUDIO
FLAGS DCP
INDEX 01 00:00:00
FILE “13 – Horror Show.wav” WAVE
TRACK 13 AUDIO
FLAGS DCP
INDEX 01 00:00:00
FILE “14 – Kill The Lights.wav” WAVE
TRACK 14 AUDIO
FLAGS DCP
INDEX 01 00:00:00
TRACK 15 AUDIO
FLAGS DCP
INDEX 00 04:04:25
FILE “15 – Blue.wav” WAVE
INDEX 01 00:00:00
FILE “16 – Happy Birthday.wav” WAVE
TRACK 16 AUDIO
FLAGS DCP
INDEX 01 00:00:00


Leave a Reply

Your email address will not be published. Required fields are marked *

Enter the text from the image below
 

This site uses Akismet to reduce spam. Learn how your comment data is processed.