The Birthday Massacre – Pins And Needles




Artist: The Birthday Massacre
Year: 2010
Genre: Rock
Notes: Discogs
Add. Notes:
Cover incl.: Yes
Encoder: FLAC
Bitrate: ~1100 kBit/s (44.1 kHz/16 Bit/s)
Log & Cue incl.: Yes
Size: 343,22 MB
Password: “slam” (without ” “)


All Downloads/Hosters are compatible

Download 1
Turbobit.net
KatFile.com
Rapidgator.net
Download 2
Turbobit.net
KatFile.com
Rapidgator.net

Tracklist:

1 - In The Dark - 3:42
2 - Always - 4:11
3 - Pale - 3:58
4 - Control - 3:20
5 - Shallow Grave - 3:47
6 - Sideways - 3:25
7 - Midnight - 3:43
8 - Pins And Needles - 4:19
9 - Two Hearts - 3:20
10 - Sleepwalking - 3:49
11 - Secret - 4:23

EAC-Log, CUE-Sheed & NFO:

Click to open spoiler
Exact Audio Copy V0.99 prebeta 5 from 4. May 2009

EAC extraction logfile from 14. September 2010, 18:32

The Birthday Massacre / Pins And Needles

Used drive : HL-DT-STDVD+-RW GH30N Adapter: 1 ID: 0

Read mode : Secure
Utilize accurate stream : Yes
Defeat audio cache : Yes
Make use of C2 pointers : No

Read offset correction : 102
Overread into Lead-In and Lead-Out : No
Fill up missing offset samples with silence : Yes
Delete leading and trailing silent blocks : No
Null samples used in CRC calculations : Yes
Used interface : Native Win32 interface for Win NT & 2000
Gap handling : Appended to previous track

Used output format : User Defined Encoder
Selected bitrate : 768 kBit/s
Quality : High
Add ID3 tag : No
Command line compressor : C:\Program Files (x86)\Exact Audio Copy\Flac\flac.exe
Additional command line options : -8 -V -T “ARTIST=%a” -T “TITLE=%t” -T “ALBUM=%g” -T “DATE=%y” -T “TRACKNUMBER=%n” -T “TOTALTRACKS=%x” -T “GENRE=%m” -T “ALBUMARTIST=%v” -T “ALBUM ARTIST=%v” -T “COMMENT=EAC Secure Mode, Test & Copy, AccurateRip, FLAC -8” %s

TOC of the extracted CD

Track | Start | Length | Start sector | End sector
———————————————————
1 | 0:00.00 | 3:42.52 | 0 | 16701
2 | 3:42.52 | 4:11.20 | 16702 | 35546
3 | 7:53.72 | 3:58.34 | 35547 | 53430
4 | 11:52.31 | 3:20.20 | 53431 | 68450
5 | 15:12.51 | 3:47.18 | 68451 | 85493
6 | 18:59.69 | 3:25.20 | 85494 | 100888
7 | 22:25.14 | 3:43.59 | 100889 | 117672
8 | 26:08.73 | 4:19.54 | 117673 | 137151
9 | 30:28.52 | 3:20.60 | 137152 | 152211
10 | 33:49.37 | 3:49.45 | 152212 | 169431
11 | 37:39.07 | 4:23.62 | 169432 | 189218

Track 1

Filename D:\FLAC Incomplete\The Birthday Massacre – Pins And Needles\01 – In The Dark .wav

Pre-gap length 0:00:02.00

Peak level 99.0 %
Track quality 100.0 %
Test CRC D406C494
Copy CRC D406C494
Track not present in AccurateRip database
Copy OK

Track 2

Filename D:\FLAC Incomplete\The Birthday Massacre – Pins And Needles\02 – Always .wav

Peak level 99.0 %
Track quality 100.0 %
Test CRC 793DBD7E
Copy CRC 793DBD7E
Track not present in AccurateRip database
Copy OK

Track 3

Filename D:\FLAC Incomplete\The Birthday Massacre – Pins And Needles\03 – Pale .wav

Peak level 99.0 %
Track quality 100.0 %
Test CRC 203A3302
Copy CRC 203A3302
Track not present in AccurateRip database
Copy OK

Track 4

Filename D:\FLAC Incomplete\The Birthday Massacre – Pins And Needles\04 – Control .wav

Peak level 99.0 %
Track quality 100.0 %
Test CRC DEFEE0A2
Copy CRC DEFEE0A2
Track not present in AccurateRip database
Copy OK

Track 5

Filename D:\FLAC Incomplete\The Birthday Massacre – Pins And Needles\05 – Shallow Grave .wav

Peak level 99.0 %
Track quality 100.0 %
Test CRC B71B0A0D
Copy CRC B71B0A0D
Track not present in AccurateRip database
Copy OK

Track 6

Filename D:\FLAC Incomplete\The Birthday Massacre – Pins And Needles\06 – Sideways .wav

Peak level 99.0 %
Track quality 100.0 %
Test CRC 7E286C24
Copy CRC 7E286C24
Track not present in AccurateRip database
Copy OK

Track 7

Filename D:\FLAC Incomplete\The Birthday Massacre – Pins And Needles\07 – Midnight .wav

Peak level 99.0 %
Track quality 99.9 %
Test CRC 366B2183
Copy CRC 366B2183
Track not present in AccurateRip database
Copy OK

Track 8

Filename D:\FLAC Incomplete\The Birthday Massacre – Pins And Needles\08 – Pins And Needles .wav

Peak level 99.0 %
Track quality 100.0 %
Test CRC 91122CF1
Copy CRC 91122CF1
Track not present in AccurateRip database
Copy OK

Track 9

Filename D:\FLAC Incomplete\The Birthday Massacre – Pins And Needles\09 – Two Hearts .wav

Peak level 99.0 %
Track quality 100.0 %
Test CRC 6B161110
Copy CRC 6B161110
Track not present in AccurateRip database
Copy OK

Track 10

Filename D:\FLAC Incomplete\The Birthday Massacre – Pins And Needles\10 – Sleepwalking .wav

Peak level 99.0 %
Track quality 100.0 %
Test CRC 6B2814F1
Copy CRC 6B2814F1
Track not present in AccurateRip database
Copy OK

Track 11

Filename D:\FLAC Incomplete\The Birthday Massacre – Pins And Needles\11 – Secret .wav

Peak level 99.0 %
Track quality 100.0 %
Test CRC D73BD716
Copy CRC D73BD716
Track not present in AccurateRip database
Copy OK

None of the tracks are present in the AccurateRip database

No errors occurred

End of status report

REM GENRE Synth Rock/Gothic Rock/Alternative Rock
REM DISCID 7409DA0B
REM COMMENT “ExactAudioCopy v0.99pb5”
PERFORMER “The Birthday Massacre”
TITLE “Pins And Needles”
FILE “01 – In The Dark.wav” WAVE
TRACK 01 AUDIO
TITLE “In The Dark”
PERFORMER “The Birthday Massacre”
FLAGS DCP
INDEX 01 00:00:00
FILE “02 – Always.wav” WAVE
TRACK 02 AUDIO
TITLE “Always”
PERFORMER “The Birthday Massacre”
FLAGS DCP
INDEX 01 00:00:00
FILE “03 – Pale.wav” WAVE
TRACK 03 AUDIO
TITLE “Pale”
PERFORMER “The Birthday Massacre”
FLAGS DCP
INDEX 01 00:00:00
FILE “04 – Control.wav” WAVE
TRACK 04 AUDIO
TITLE “Control”
PERFORMER “The Birthday Massacre”
FLAGS DCP
INDEX 01 00:00:00
FILE “05 – Shallow Grave.wav” WAVE
TRACK 05 AUDIO
TITLE “Shallow Grave”
PERFORMER “The Birthday Massacre”
FLAGS DCP
INDEX 01 00:00:00
FILE “06 – Sideways.wav” WAVE
TRACK 06 AUDIO
TITLE “Sideways”
PERFORMER “The Birthday Massacre”
FLAGS DCP
INDEX 01 00:00:00
FILE “07 – Midnight.wav” WAVE
TRACK 07 AUDIO
TITLE “Midnight”
PERFORMER “The Birthday Massacre”
FLAGS DCP
INDEX 01 00:00:00
FILE “08 – Pins And Needles.wav” WAVE
TRACK 08 AUDIO
TITLE “Pins And Needles”
PERFORMER “The Birthday Massacre”
FLAGS DCP
INDEX 01 00:00:00
FILE “09 – Two Hearts.wav” WAVE
TRACK 09 AUDIO
TITLE “Two Hearts”
PERFORMER “The Birthday Massacre”
FLAGS DCP
INDEX 01 00:00:00
FILE “10 – Sleepwalking.wav” WAVE
TRACK 10 AUDIO
TITLE “Sleepwalking”
PERFORMER “The Birthday Massacre”
FLAGS DCP
INDEX 01 00:00:00
FILE “11 – Secret.wav” WAVE
TRACK 11 AUDIO
TITLE “Secret”
PERFORMER “The Birthday Massacre”
FLAGS DCP
INDEX 01 00:00:00


Leave a Reply

Your email address will not be published. Required fields are marked *

This site uses Akismet to reduce spam. Learn how your comment data is processed.