The Birthday Massacre – Nothing & Nowhere




[Total: 0    Average: 0/5]

Artist: The Birthday Massacre
Year: 2002/2007
Genre: Alternative
Notes: Discogs
Add. Notes:
Cover incl.: Yes
Encoder: FLAC
Bitrate: ~1000 kBit/s (44.1 kHz/16 Bit/s)
Log & Cue incl.: Yes
Size: 305,45 MB
Password: “slam” (without ” “)


All Downloads/Hosters are compatible

Download 1
Share-online.biz
KatFile.com
Rapidgator.net
Turbobit.net
Download 2
Share-online.biz
KatFile.com
Rapidgator.net
Turbobit.net

Tracklist:

1 - Happy Birthday - 3:37
2 - Horror Show - 4:10
3 - Promise Me - 4:16
4 - Under The Stairs - 4:30
5 - To Die For - 5:46
6 - Video Kid - 4:34
7 - Over - 4:02
8 - Broken - 3:56
9 - The Dream - 3:54

EAC-Log, CUE-Sheed & NFO:

Click to open spoiler
Exact Audio Copy V0.99 prebeta 5 from 4. May 2009

EAC extraction logfile from 17. May 2009, 0:41

The Birthday Massacre / Nothing and Nowhere

Used drive : JLMS DVD-ROM LTD-166S Adapter: 0 ID: 1

Read mode : Secure
Utilize accurate stream : Yes
Defeat audio cache : Yes
Make use of C2 pointers : No

Read offset correction : 12
Overread into Lead-In and Lead-Out : No
Fill up missing offset samples with silence : Yes
Delete leading and trailing silent blocks : No
Null samples used in CRC calculations : Yes
Used interface : Native Win32 interface for Win NT & 2000
Gap handling : Appended to previous track

Used output format : User Defined Encoder
Selected bitrate : 192 kBit/s
Quality : High
Add ID3 tag : No
Command line compressor : C:\Program Files\Exact Audio Copy\Flac\flac.exe
Additional command line options : -V -8 -T “artist=%a” -T “title=%t” -T “album=%g” -T “date=%y” -T “tracknumber=%n” -T “genre=%m” %s

TOC of the extracted CD

Track | Start | Length | Start sector | End sector
———————————————————
1 | 0:00.00 | 3:37.45 | 0 | 16319
2 | 3:37.45 | 4:10.59 | 16320 | 35128
3 | 7:48.29 | 4:16.58 | 35129 | 54386
4 | 12:05.12 | 4:30.01 | 54387 | 74637
5 | 16:35.13 | 5:46.18 | 74638 | 100605
6 | 22:21.31 | 4:34.16 | 100606 | 121171
7 | 26:55.47 | 4:02.57 | 121172 | 139378
8 | 30:58.29 | 3:56.66 | 139379 | 157144
9 | 34:55.20 | 3:54.39 | 157145 | 174733

Track 1

Filename G:\Mine\my documents\My Music\EAC rips\flac\The Birthday Massacre – 2007 – Nothing and Nowhere\The Birthday Massacre – 2007 – Nothing and Nowhere – 01 – Happy Birthday.wav

Pre-gap length 0:00:02.00

Peak level 92.4 %
Track quality 100.0 %
Test CRC 4664DEB8
Copy CRC 4664DEB8
Accurately ripped (confidence 7) [2AF98A16]
Copy OK

Track 2

Filename G:\Mine\my documents\My Music\EAC rips\flac\The Birthday Massacre – 2007 – Nothing and Nowhere\The Birthday Massacre – 2007 – Nothing and Nowhere – 02 – Horror Show.wav

Peak level 95.1 %
Track quality 100.0 %
Test CRC CA36B53A
Copy CRC CA36B53A
Accurately ripped (confidence 7) [C2709487]
Copy OK

Track 3

Filename G:\Mine\my documents\My Music\EAC rips\flac\The Birthday Massacre – 2007 – Nothing and Nowhere\The Birthday Massacre – 2007 – Nothing and Nowhere – 03 – Promise Me.wav

Peak level 95.1 %
Track quality 100.0 %
Test CRC 67409E54
Copy CRC 67409E54
Accurately ripped (confidence 8) [A8257179]
Copy OK

Track 4

Filename G:\Mine\my documents\My Music\EAC rips\flac\The Birthday Massacre – 2007 – Nothing and Nowhere\The Birthday Massacre – 2007 – Nothing and Nowhere – 04 – Under The Stairs.wav

Peak level 96.2 %
Track quality 100.0 %
Test CRC 7A727ECC
Copy CRC 7A727ECC
Accurately ripped (confidence 7) [5FFA2B0A]
Copy OK

Track 5

Filename G:\Mine\my documents\My Music\EAC rips\flac\The Birthday Massacre – 2007 – Nothing and Nowhere\The Birthday Massacre – 2007 – Nothing and Nowhere – 05 – To Die For.wav

Peak level 96.2 %
Track quality 100.0 %
Test CRC 2C644A60
Copy CRC 2C644A60
Accurately ripped (confidence 8) [965EBB19]
Copy OK

Track 6

Filename G:\Mine\my documents\My Music\EAC rips\flac\The Birthday Massacre – 2007 – Nothing and Nowhere\The Birthday Massacre – 2007 – Nothing and Nowhere – 06 – Video Kid.wav

Peak level 96.2 %
Track quality 100.0 %
Test CRC 7CC293FF
Copy CRC 7CC293FF
Accurately ripped (confidence 7) [B43A0859]
Copy OK

Track 7

Filename G:\Mine\my documents\My Music\EAC rips\flac\The Birthday Massacre – 2007 – Nothing and Nowhere\The Birthday Massacre – 2007 – Nothing and Nowhere – 07 – Over.wav

Peak level 97.5 %
Track quality 99.9 %
Test CRC E1F41E13
Copy CRC E1F41E13
Accurately ripped (confidence 7) [707EE86B]
Copy OK

Track 8

Filename G:\Mine\my documents\My Music\EAC rips\flac\The Birthday Massacre – 2007 – Nothing and Nowhere\The Birthday Massacre – 2007 – Nothing and Nowhere – 08 – Broken.wav

Peak level 95.1 %
Track quality 100.0 %
Test CRC 6326C96A
Copy CRC 6326C96A
Accurately ripped (confidence 8) [2FCFAB14]
Copy OK

Track 9

Filename G:\Mine\my documents\My Music\EAC rips\flac\The Birthday Massacre – 2007 – Nothing and Nowhere\The Birthday Massacre – 2007 – Nothing and Nowhere – 09 – The Dream.wav

Peak level 97.8 %
Track quality 100.0 %
Test CRC 9582F286
Copy CRC 9582F286
Accurately ripped (confidence 7) [D4CE5EE6]
Copy OK

All tracks accurately ripped

No errors occurred

End of status report

REM GENRE Gothic
REM DATE 2007
REM DISCID 7D091909
REM COMMENT “ExactAudioCopy v0.99pb5”
PERFORMER “The Birthday Massacre”
TITLE “Nothing and Nowhere”
FILE “The Birthday Massacre – 2007 – Nothing and Nowhere – 01 – Happy Birthday.wav” WAVE
TRACK 01 AUDIO
TITLE “Happy Birthday”
PERFORMER “The Birthday Massacre”
FLAGS DCP
INDEX 01 00:00:00
FILE “The Birthday Massacre – 2007 – Nothing and Nowhere – 02 – Horror Show.wav” WAVE
TRACK 02 AUDIO
TITLE “Horror Show”
PERFORMER “The Birthday Massacre”
FLAGS DCP
INDEX 01 00:00:00
FILE “The Birthday Massacre – 2007 – Nothing and Nowhere – 03 – Promise Me.wav” WAVE
TRACK 03 AUDIO
TITLE “Promise Me”
PERFORMER “The Birthday Massacre”
FLAGS DCP
INDEX 01 00:00:00
FILE “The Birthday Massacre – 2007 – Nothing and Nowhere – 04 – Under The Stairs.wav” WAVE
TRACK 04 AUDIO
TITLE “Under The Stairs”
PERFORMER “The Birthday Massacre”
FLAGS DCP
INDEX 01 00:00:00
FILE “The Birthday Massacre – 2007 – Nothing and Nowhere – 05 – To Die For.wav” WAVE
TRACK 05 AUDIO
TITLE “To Die For”
PERFORMER “The Birthday Massacre”
FLAGS DCP
INDEX 01 00:00:00
FILE “The Birthday Massacre – 2007 – Nothing and Nowhere – 06 – Video Kid.wav” WAVE
TRACK 06 AUDIO
TITLE “Video Kid”
PERFORMER “The Birthday Massacre”
FLAGS DCP
INDEX 01 00:00:00
FILE “The Birthday Massacre – 2007 – Nothing and Nowhere – 07 – Over.wav” WAVE
TRACK 07 AUDIO
TITLE “Over”
PERFORMER “The Birthday Massacre”
FLAGS DCP
INDEX 01 00:00:00
FILE “The Birthday Massacre – 2007 – Nothing and Nowhere – 08 – Broken.wav” WAVE
TRACK 08 AUDIO
TITLE “Broken”
PERFORMER “The Birthday Massacre”
FLAGS DCP
INDEX 01 00:00:00
FILE “The Birthday Massacre – 2007 – Nothing and Nowhere – 09 – The Dream.wav” WAVE
TRACK 09 AUDIO
TITLE “The Dream”
PERFORMER “The Birthday Massacre”
FLAGS DCP
INDEX 01 00:00:00


Spread the Download

Leave a Reply

Your email address will not be published. Required fields are marked *

Enter the text from the image below
 

This site uses Akismet to reduce spam. Learn how your comment data is processed.