The Birthday Massacre – Imagica (Remastered)




Artist: The Birthday Massacre
Year: 2016
Genre: Rock
Notes: Discogs
Add. Notes: Remastered
Cover incl.: Yes
Encoder: FLAC
Bitrate: ~1000 kBit/s (44.1 kHz/16 Bit/s)
Log & Cue incl.: Yes
Size: 298,06 MB
Password: “slam” (without ” “)


All Downloads/Hosters are compatible

Download 1
Turbobit.net
KatFile.com
Rapidgator.net
Usersdrive.com
Download 2
Turbobit.net
KatFile.com
Rapidgator.net
Usersdrive.com

Tracklist:

1 - Over - 4:03
2 - Remember Me - 4:59
3 - Under The Stairs - 3:58
4 - The Birthday Massacre - 3:35
5 - Nothing And Nowhere - 4:16
6 - Queen Of Hearts - 3:42
7 - Night Time - 5:13
8 - Play Dead - 3:23
9 - Open Your Heart - 3:46
10 - From Out Of Nowhere - 3:13
11 - Dead - 4:05

EAC-Log, CUE-Sheed & NFO:

Click to open spoiler
Exact Audio Copy V1.1 from 23. June 2015

EAC extraction logfile from 22. July 2016, 18:43

The Birthday Massacre / Imagica

Used drive : HL-DT-STDVD+-RW GU90N Adapter: 1 ID: 0

Read mode : Secure
Utilize accurate stream : Yes
Defeat audio cache : Yes
Make use of C2 pointers : No

Read offset correction : 102
Overread into Lead-In and Lead-Out : No
Fill up missing offset samples with silence : Yes
Delete leading and trailing silent blocks : No
Null samples used in CRC calculations : Yes
Used interface : Native Win32 interface for Win NT & 2000
Gap handling : Appended to previous track

Used output format : User Defined Encoder
Selected bitrate : 1024 kBit/s
Quality : High
Add ID3 tag : No
Command line compressor : C:\Program Files (x86)\Exact Audio Copy\FLAC\FLAC.EXE
Additional command line options : -6 -V -T “ARTIST=%artist%” -T “TITLE=%title%” -T “ALBUM=%albumtitle%” -T “DATE=%year%” -T “TRACKNUMBER=%tracknr%” -T “GENRE=%genre%” -T “COMMENT=%comment%” -T “BAND=%albuminterpret%” -T “ALBUMARTIST=%albuminterpret%” -T “COMPOSER=%composer%” %haslyrics%–tag-from-file=LYRICS=”%lyricsfile%”%haslyrics% -T “DISCNUMBER=%cdnumber%” -T “TOTALDISCS=%totalcds%” -T “TOTALTRACKS=%numtracks%” %hascover%–picture=”%coverfile%”%hascover% %source% -o %dest%

TOC of the extracted CD

Track | Start | Length | Start sector | End sector
———————————————————
1 | 0:00.00 | 4:03.00 | 0 | 18224
2 | 4:03.00 | 4:59.00 | 18225 | 40649
3 | 9:02.00 | 3:58.68 | 40650 | 58567
4 | 13:00.68 | 3:35.32 | 58568 | 74724
5 | 16:36.25 | 4:16.03 | 74725 | 93927
6 | 20:52.28 | 3:42.17 | 93928 | 110594
7 | 24:34.45 | 5:13.31 | 110595 | 134100
8 | 29:48.01 | 3:23.15 | 134101 | 149340
9 | 33:11.16 | 3:46.18 | 149341 | 166308
10 | 36:57.34 | 3:13.45 | 166309 | 180828
11 | 40:11.04 | 4:05.14 | 180829 | 199217

Track 1

Filename Z:\tmp\eac\The Birthday Massacre – Imagica\01 – Over.wav

Pre-gap length 0:00:02.00

Peak level 97.7 %
Extraction speed 2.1 X
Track quality 99.9 %
Test CRC 21E639DF
Copy CRC 21E639DF
Track not present in AccurateRip database
Copy OK

Track 2

Filename Z:\tmp\eac\The Birthday Massacre – Imagica\02 – Remember Me.wav

Pre-gap length 0:00:00.25

Peak level 97.7 %
Extraction speed 3.0 X
Track quality 100.0 %
Test CRC CD84E28B
Copy CRC CD84E28B
Track not present in AccurateRip database
Copy OK

Track 3

Filename Z:\tmp\eac\The Birthday Massacre – Imagica\03 – Under the Stairs.wav

Peak level 97.7 %
Extraction speed 3.2 X
Track quality 100.0 %
Test CRC E9FE8DCB
Copy CRC E9FE8DCB
Track not present in AccurateRip database
Copy OK

Track 4

Filename Z:\tmp\eac\The Birthday Massacre – Imagica\04 – The Birthday Massacre.wav

Peak level 97.7 %
Extraction speed 2.7 X
Track quality 99.9 %
Test CRC B6EF309F
Copy CRC B6EF309F
Track not present in AccurateRip database
Copy OK

Track 5

Filename Z:\tmp\eac\The Birthday Massacre – Imagica\05 – Nothing and Nowhere.wav

Peak level 97.7 %
Extraction speed 3.7 X
Track quality 100.0 %
Test CRC 0A212156
Copy CRC 0A212156
Track not present in AccurateRip database
Copy OK

Track 6

Filename Z:\tmp\eac\The Birthday Massacre – Imagica\06 – Queen of Hearts.wav

Peak level 97.7 %
Extraction speed 3.8 X
Track quality 100.0 %
Test CRC 295EBF0D
Copy CRC 295EBF0D
Track not present in AccurateRip database
Copy OK

Track 7

Filename Z:\tmp\eac\The Birthday Massacre – Imagica\07 – Night Time.wav

Peak level 97.7 %
Extraction speed 3.5 X
Track quality 99.9 %
Test CRC 71B19219
Copy CRC 71B19219
Track not present in AccurateRip database
Copy OK

Track 8

Filename Z:\tmp\eac\The Birthday Massacre – Imagica\08 – Play Dead.wav

Peak level 97.7 %
Extraction speed 3.2 X
Track quality 99.9 %
Test CRC 47340E42
Copy CRC 47340E42
Track not present in AccurateRip database
Copy OK

Track 9

Filename Z:\tmp\eac\The Birthday Massacre – Imagica\09 – Open Your Heart.wav

Peak level 97.7 %
Extraction speed 4.4 X
Track quality 100.0 %
Test CRC F32DD043
Copy CRC F32DD043
Track not present in AccurateRip database
Copy OK

Track 10

Filename Z:\tmp\eac\The Birthday Massacre – Imagica\10 – From Out of Nowhere.wav

Peak level 97.7 %
Extraction speed 4.1 X
Track quality 100.0 %
Test CRC 82FA52F5
Copy CRC 82FA52F5
Track not present in AccurateRip database
Copy OK

Track 11

Filename Z:\tmp\eac\The Birthday Massacre – Imagica\11 – Dead.wav

Peak level 97.7 %
Extraction speed 4.2 X
Track quality 100.0 %
Test CRC 60004FA2
Copy CRC 60004FA2
Track not present in AccurateRip database
Copy OK

None of the tracks are present in the AccurateRip database

No errors occurred

End of status report

==== Log checksum 7231DEB42327A0B2734209A91A869D5015EBA9D4445D476CE7AB6867EC251359 ====

REM GENRE “Goth Rock”
REM DATE 2016
REM DISCID A20A600B
REM COMMENT “ExactAudioCopy v1.1”
CATALOG 0782388103121
PERFORMER “The Birthday Massacre”
TITLE “Imagica”
FILE “The Birthday Massacre – Imagica\01 – Over.wav” WAVE
TRACK 01 AUDIO
TITLE “Over”
PERFORMER “The Birthday Massacre”
ISRC US57M1603101
INDEX 01 00:00:00
TRACK 02 AUDIO
TITLE “Remember Me”
PERFORMER “The Birthday Massacre”
ISRC US57M1603102
INDEX 00 04:02:56
FILE “The Birthday Massacre – Imagica\02 – Remember Me.wav” WAVE
INDEX 01 00:00:00
FILE “The Birthday Massacre – Imagica\03 – Under the Stairs.wav” WAVE
TRACK 03 AUDIO
TITLE “Under the Stairs”
PERFORMER “The Birthday Massacre”
ISRC US57M1603103
INDEX 01 00:00:00
FILE “The Birthday Massacre – Imagica\04 – The Birthday Massacre.wav” WAVE
TRACK 04 AUDIO
TITLE “The Birthday Massacre”
PERFORMER “The Birthday Massacre”
ISRC US57M1603104
INDEX 01 00:00:00
FILE “The Birthday Massacre – Imagica\05 – Nothing and Nowhere.wav” WAVE
TRACK 05 AUDIO
TITLE “Nothing and Nowhere”
PERFORMER “The Birthday Massacre”
ISRC US57M1603105
INDEX 01 00:00:00
FILE “The Birthday Massacre – Imagica\06 – Queen of Hearts.wav” WAVE
TRACK 06 AUDIO
TITLE “Queen of Hearts”
PERFORMER “The Birthday Massacre”
ISRC US57M1603106
INDEX 01 00:00:00
FILE “The Birthday Massacre – Imagica\07 – Night Time.wav” WAVE
TRACK 07 AUDIO
TITLE “Night Time”
PERFORMER “The Birthday Massacre”
ISRC US57M1603107
INDEX 01 00:00:00
FILE “The Birthday Massacre – Imagica\08 – Play Dead.wav” WAVE
TRACK 08 AUDIO
TITLE “Play Dead”
PERFORMER “The Birthday Massacre”
ISRC US57M1603107
INDEX 01 00:00:00
FILE “The Birthday Massacre – Imagica\09 – Open Your Heart.wav” WAVE
TRACK 09 AUDIO
TITLE “Open Your Heart”
PERFORMER “The Birthday Massacre”
ISRC US57M1603109
INDEX 01 00:00:00
FILE “The Birthday Massacre – Imagica\10 – From Out of Nowhere.wav” WAVE
TRACK 10 AUDIO
TITLE “From Out of Nowhere”
PERFORMER “The Birthday Massacre”
ISRC US57M1603109
INDEX 01 00:00:00
FILE “The Birthday Massacre – Imagica\11 – Dead.wav” WAVE
TRACK 11 AUDIO
TITLE “Dead”
PERFORMER “The Birthday Massacre”
ISRC US57M1603111
INDEX 01 00:00:00


Leave a Reply

Your email address will not be published. Required fields are marked *

Enter the text from the image below
 

This site uses Akismet to reduce spam. Learn how your comment data is processed.