The Beatles – Yellow Submarine Songtrack




Artist: The Beatles
Year: 1999
Genre: Rock
Notes: Discogs
Add. Notes:
Cover incl.: Yes
Encoder: FLAC
Bitrate: ~900 kBit/s (44.1 kHz/16 Bit/s)
Log & Cue incl.: Yes
Size: 326,45 MB
Password: “slam” (without ” “)


All Downloads/Hosters are compatible

Download 1
Turbobit.net
KatFile.com
Rapidgator.net
Download 2
Turbobit.net
KatFile.com
Rapidgator.net

Tracklist:

01. Yellow Submarine  2:39
02. Hey Bulldog  3:12
03. Eleanor Rigby  2:05
04. Love You To  2:59
05. All Together Now  2:11
06. Lucy In The Sky With Diamonds  3:28
07. Think For Yourself  2:19
08. Sgt. Pepper's Lonely Hearts Club Band  2:01
09. With A Little Help From My Friends  2:46
10. Baby You're A Rich Man  3:01
11. Only A Northern Song  3:25
12. All You Need Is Love  3:47
13. When I'm Sixty Four  2:39
14. Nowhere Man  2:42
15. It's All Too Much  6:26

EAC-Log, CUE-Sheed & NFO:

Click to open spoiler
Exact Audio Copy V1.0 beta 3 from 29. August 2011

EAC extraction logfile from 23. August 2013, 19:03

The Beatles / Yellow Submarine Songtrack

Used drive : PLEXTOR DVDR PX-891SA Adapter: 1 ID: 0

Read mode : Secure
Utilize accurate stream : Yes
Defeat audio cache : Yes
Make use of C2 pointers : No

Read offset correction : 6
Overread into Lead-In and Lead-Out : No
Fill up missing offset samples with silence : Yes
Delete leading and trailing silent blocks : No
Null samples used in CRC calculations : Yes
Used interface : Native Win32 interface for Win NT & 2000

Used output format : User Defined Encoder
Selected bitrate : 1024 kBit/s
Quality : High
Add ID3 tag : No
Command line compressor : C:\Program Files\Exact Audio Copy\Flac\flac.exe
Additional command line options : -V -8 -T “Genre=%genre%” -T “Artist=%artist%” -T “Title=%title%” -T “Album=%albumtitle%” -T “Date=%year%” -T “Tracknumber=%tracknr%” -T “Comment=%comment%” %source%

TOC of the extracted CD

Track | Start | Length | Start sector | End sector
———————————————————
1 | 0:00.00 | 2:39.12 | 0 | 11936
2 | 2:39.12 | 3:11.63 | 11937 | 26324
3 | 5:51.00 | 2:05.17 | 26325 | 35716
4 | 7:56.17 | 2:58.53 | 35717 | 49119
5 | 10:54.70 | 2:10.47 | 49120 | 58916
6 | 13:05.42 | 3:28.30 | 58917 | 74546
7 | 16:33.72 | 2:18.48 | 74547 | 84944
8 | 18:52.45 | 2:01.27 | 84945 | 94046
9 | 20:53.72 | 2:45.50 | 94047 | 106471
10 | 23:39.47 | 3:00.45 | 106472 | 120016
11 | 26:40.17 | 3:24.38 | 120017 | 135354
12 | 30:04.55 | 3:46.50 | 135355 | 152354
13 | 33:51.30 | 2:39.07 | 152355 | 164286
14 | 36:30.37 | 2:42.30 | 164287 | 176466
15 | 39:12.67 | 6:25.45 | 176467 | 205386

Range status and errors

Selected range

Filename I:\dafnaplus\Beatles – Yellow Submarine Songtrack\The Beatles – Yellow Submarine Songtrack.wav

Peak level 99.8 %
Extraction speed 7.9 X
Range quality 100.0 %
Test CRC F2069889
Copy CRC F2069889
Copy OK

No errors occurred

AccurateRip summary

Track 1 accurately ripped (confidence 76) [50097823] (AR v2)
Track 2 accurately ripped (confidence 74) [BF78D9F4] (AR v2)
Track 3 accurately ripped (confidence 75) [C247AF2A] (AR v2)
Track 4 accurately ripped (confidence 75) [C5E79DBE] (AR v2)
Track 5 accurately ripped (confidence 76) [1983BC1A] (AR v2)
Track 6 accurately ripped (confidence 75) [E31AB6C6] (AR v2)
Track 7 accurately ripped (confidence 75) [CF94CBE9] (AR v2)
Track 8 accurately ripped (confidence 77) [0DF5F25E] (AR v2)
Track 9 accurately ripped (confidence 76) [C0C6E10E] (AR v2)
Track 10 accurately ripped (confidence 74) [83E7E05E] (AR v2)
Track 11 accurately ripped (confidence 74) [C041A1EC] (AR v2)
Track 12 accurately ripped (confidence 75) [CE272C4B] (AR v2)
Track 13 accurately ripped (confidence 74) [753966E6] (AR v2)
Track 14 accurately ripped (confidence 73) [369CAB39] (AR v2)
Track 15 accurately ripped (confidence 71) [4C507CD0] (AR v2)

All tracks accurately ripped

End of status report

==== Log checksum D63B51BD6DE31C53A9D63D05ADE232027EB51902607FCA04BB702399551E58E7 ====

REM GENRE Rock
REM DATE 1999
REM DISCID C00AB20F
REM COMMENT “ExactAudioCopy v1.0b3”
CATALOG 0724352148127
PERFORMER “The Beatles”
TITLE “Yellow Submarine Songtrack”
FILE “The Beatles – Yellow Submarine Songtrack.flac” WAVE
TRACK 01 AUDIO
TITLE “Yellow Submarine”
PERFORMER “The Beatles”
ISRC GBAYE9901217
INDEX 01 00:00:00
TRACK 02 AUDIO
TITLE “Hey Bulldog”
PERFORMER “The Beatles”
ISRC GBAYE9901218
INDEX 00 02:38:32
INDEX 01 02:39:12
TRACK 03 AUDIO
TITLE “Eleanor Rigby”
PERFORMER “The Beatles”
ISRC GBAYE9901219
INDEX 00 05:49:37
INDEX 01 05:51:00
TRACK 04 AUDIO
TITLE “Love You To”
PERFORMER “The Beatles”
ISRC GBAYE9901220
INDEX 00 07:55:72
INDEX 01 07:56:17
TRACK 05 AUDIO
TITLE “All Together Now”
PERFORMER “The Beatles”
ISRC GBAYE9901221
INDEX 00 10:53:45
INDEX 01 10:54:70
TRACK 06 AUDIO
TITLE “Lucy In The Sky With Diamonds”
PERFORMER “The Beatles”
ISRC GBAYE9901222
INDEX 00 13:04:62
INDEX 01 13:05:42
TRACK 07 AUDIO
TITLE “Think For Yourself”
PERFORMER “The Beatles”
ISRC GBAYE9901223
INDEX 00 16:33:22
INDEX 01 16:33:72
TRACK 08 AUDIO
TITLE “Sgt. Pepper’s Lonely Hearts Club Band”
PERFORMER “The Beatles”
ISRC GBAYE9901224
INDEX 00 18:52:40
INDEX 01 18:52:45
TRACK 09 AUDIO
TITLE “With A Little Help From My Friends”
PERFORMER “The Beatles”
ISRC GBAYE9901225
INDEX 01 20:53:72
TRACK 10 AUDIO
TITLE “Baby You’re A Rich Man”
PERFORMER “The Beatles”
ISRC GBAYE9901226
INDEX 00 23:38:60
INDEX 01 23:39:47
TRACK 11 AUDIO
TITLE “Only A Northern Song”
PERFORMER “The Beatles”
ISRC GBAYE9901227
INDEX 00 26:39:55
INDEX 01 26:40:17
TRACK 12 AUDIO
TITLE “All You Need Is Love”
PERFORMER “The Beatles”
ISRC GBAYE9901228
INDEX 01 30:04:55
TRACK 13 AUDIO
TITLE “When I’m Sixty Four”
PERFORMER “The Beatles”
ISRC GBAYE9901229
INDEX 00 33:51:07
INDEX 01 33:51:30
TRACK 14 AUDIO
TITLE “Nowhere Man”
PERFORMER “The Beatles”
ISRC GBAYE9901230
INDEX 00 36:30:10
INDEX 01 36:30:37
TRACK 15 AUDIO
TITLE “It’s All Too Much”
PERFORMER “The Beatles”
ISRC GBAYE9901231
INDEX 00 39:11:42
INDEX 01 39:12:67


Leave a Reply

Your email address will not be published. Required fields are marked *

Enter the text from the image below
 

This site uses Akismet to reduce spam. Learn how your comment data is processed.