The Beatles – Yellow Submarine Songtrack (Remastered)




Artist: The Beatles
Year: 1999
Genre: Rock
Notes: Discogs
Add. Notes: Remastered
Cover incl.: Yes
Encoder: FLAC
Bitrate: ~900 kBit/s (44.1 kHz/16 Bit/s)
Log & Cue incl.: Yes
Size: 309,36 MB
Password: “slam” (without ” “)


All Downloads/Hosters are compatible

Download 1
NitroFlare.com
KatFile.com
Turbobit.net
Rapidgator.net
UploadRar.com
Download 2
NitroFlare.com
KatFile.com
Turbobit.net
Rapidgator.net
UploadRar.com

Tracklist:

01. Yellow Submarine  2:39
02. Hey Bulldog  3:12
03. Eleanor Rigby  2:05
04. Love You To  2:59
05. All Together Now  2:10
06. Lucy In The Sky With Diamonds  3:28
07. Think For Yourself  2:19
08. Sgt. Pepper's Lonely Hearts Club Band  2:09
09. With A Little Help From My Friends  2:37
10. Baby You're A Rich Man  3:00
11. Only A Nothern Song  3:24
12. All You Need Is Love  3:47
13. When I'm Sixty Four  2:39
14. Nowhere Man  2:42
15. It's All Too Much  6:19

EAC-Log, CUE-Sheed & NFO:

Click to open spoiler
Exact Audio Copy V1.0 beta 3 from 29. August 2011

Отчёт EAC об извлечении, выполненном 11. ноября 2013, 20:27

The Beatles / Yellow Submarine (Songtrack)

Дисковод: ASUS DRW-2014L1T Adapter: 3 ID: 0

Режим чтения : Достоверность
Использование точного потока : Да
Отключение кэша аудио : Да
Использование указателей C2 : Нет

Коррекция смещения при чтении : 6
Способность читать области Lead-in и Lead-out : Нет
Заполнение пропущенных сэмплов тишиной : Да
Удаление блоков с тишиной в начале и конце : Нет
При вычислениях CRC использовались нулевые сэмплы : Да
Интерфейс : Встроенный Win32-интерфейс для Win NT/2000

Выходной формат : Пользовательский кодировщик
Выбранный битрейт : 128 kBit/s
Качество : Высокий
Добавление ID3-тега : Нет
Утилита сжатия : C:\Program Files\Exact Audio Copy\Flac\flac.exe
Дополнительные параметры : -V -8 -T “Date=%year%” -T “Genre=%genre%” %source%

TOC извлечённого CD

Трек | Старт | Длительность | Начальный сектор | Конечный сектор
———————————————————————
1 | 0:00.00 | 2:38.40 | 0 | 11889
2 | 2:38.40 | 3:11.62 | 11890 | 26276
3 | 5:50.27 | 2:05.18 | 26277 | 35669
4 | 7:55.45 | 2:58.60 | 35670 | 49079
5 | 10:54.30 | 2:10.37 | 49080 | 58866
6 | 13:04.67 | 3:28.35 | 58867 | 74501
7 | 16:33.27 | 2:19.10 | 74502 | 84936
8 | 18:52.37 | 2:09.23 | 84937 | 94634
9 | 21:01.60 | 2:37.25 | 94635 | 106434
10 | 23:39.10 | 3:00.35 | 106435 | 119969
11 | 26:39.45 | 3:24.12 | 119970 | 135281
12 | 30:03.57 | 3:46.53 | 135282 | 152284
13 | 33:50.35 | 2:39.30 | 152285 | 164239
14 | 36:29.65 | 2:42.30 | 164240 | 176419
15 | 39:12.20 | 6:19.35 | 176420 | 204879

Характеристики диапазона извлечения и сообщения об ошибках

Выбранный диапазон

Имя файла C:\Users\пк\Desktop\The Beatles – Yellow Submarine Songtack [Argentina]\The Beatles – Yellow Submarine (Songtrack).wav

Пиковый уровень 98.7 %
Скорость извлечения 8.3 X
Качество диапазона 100.0 %
CRC теста 04F6FC90
CRC копии 04F6FC90
Копирование… OK

Ошибок не произошло

AccurateRip: сводка

Трек 1 : извлечено точно (доверие 2) [873C2C33] (AR v1)
Трек 2 : извлечено точно (доверие 2) [C68D8E47] (AR v1)
Трек 3 : извлечено точно (доверие 2) [05D41B61] (AR v1)
Трек 4 : извлечено точно (доверие 2) [3BD557CA] (AR v1)
Трек 5 : извлечено точно (доверие 2) [5AE63CF4] (AR v1)
Трек 6 : извлечено точно (доверие 2) [97301ABF] (AR v1)
Трек 7 : извлечено точно (доверие 2) [177EE605] (AR v1)
Трек 8 : извлечено точно (доверие 2) [0FC3566C] (AR v1)
Трек 9 : извлечено точно (доверие 2) [FBD9675E] (AR v1)
Трек 10 : извлечено точно (доверие 2) [78A09082] (AR v1)
Трек 11 : извлечено точно (доверие 2) [3D759CBB] (AR v1)
Трек 12 : извлечено точно (доверие 2) [FFCC3059] (AR v1)
Трек 13 : извлечено точно (доверие 2) [B1DC580B] (AR v1)
Трек 14 : извлечено точно (доверие 2) [1E2D0DC6] (AR v1)
Трек 15 : извлечено точно (доверие 2) [0EE2790C] (AR v1)

Все треки извлечены точно

Конец отчёта

==== Контрольная сумма отчёта DAC623E21AC519FC0B6A9562AEB78A0A18F9B1F18B2FA50E53050A2B7D961875 ====

REM GENRE Rock
REM DATE 1999
REM DISCID B70AAB0F
REM COMMENT “ExactAudioCopy v1.0b3”
PERFORMER “The Beatles”
TITLE “Yellow Submarine (Songtrack)”
FILE “The Beatles – Yellow Submarine (Songtrack).flac” WAVE
TRACK 01 AUDIO
TITLE “Yellow Submarine”
PERFORMER “The Beatles”
INDEX 01 00:00:00
TRACK 02 AUDIO
TITLE “Hey Bulldog”
PERFORMER “The Beatles”
INDEX 00 02:37:34
INDEX 01 02:38:40
TRACK 03 AUDIO
TITLE “Eleanor Rigby”
PERFORMER “The Beatles”
INDEX 00 05:48:40
INDEX 01 05:50:27
TRACK 04 AUDIO
TITLE “Love You To”
PERFORMER “The Beatles”
INDEX 00 07:54:25
INDEX 01 07:55:45
TRACK 05 AUDIO
TITLE “All Together Now”
PERFORMER “The Beatles”
INDEX 00 10:52:47
INDEX 01 10:54:30
TRACK 06 AUDIO
TITLE “Lucy in the Sky With Diamonds”
PERFORMER “The Beatles”
INDEX 00 13:03:30
INDEX 01 13:04:67
TRACK 07 AUDIO
TITLE “Think for Yourself”
PERFORMER “The Beatles”
INDEX 00 16:32:25
INDEX 01 16:33:27
TRACK 08 AUDIO
TITLE “Sgt. Pepper’s Lonely Hearts Club Band”
PERFORMER “The Beatles”
INDEX 00 18:50:05
INDEX 01 18:52:37
TRACK 09 AUDIO
TITLE “With a Little Help from My Friends”
PERFORMER “The Beatles”
INDEX 01 21:01:60
TRACK 10 AUDIO
TITLE “Baby You’re a Rich Man”
PERFORMER “The Beatles”
INDEX 00 23:37:62
INDEX 01 23:39:10
TRACK 11 AUDIO
TITLE “Only a Nothern Song”
PERFORMER “The Beatles”
INDEX 00 26:38:15
INDEX 01 26:39:45
TRACK 12 AUDIO
TITLE “All You Need Is Love”
PERFORMER “The Beatles”
INDEX 00 30:02:10
INDEX 01 30:03:57
TRACK 13 AUDIO
TITLE “When I’m Sixty Four”
PERFORMER “The Beatles”
INDEX 00 33:48:55
INDEX 01 33:50:35
TRACK 14 AUDIO
TITLE “Nowhere Man”
PERFORMER “The Beatles”
INDEX 00 36:28:40
INDEX 01 36:29:65
TRACK 15 AUDIO
TITLE “It’s All Too Much”
PERFORMER “The Beatles”
INDEX 00 39:09:67
INDEX 01 39:12:20


Leave a Reply

Your email address will not be published. Required fields are marked *

This site uses Akismet to reduce spam. Learn how your comment data is processed.