The Beatles – With The Beatles (Japanese Edition)




Artist: The Beatles
Year: 1963/1993
Genre: Rock
Notes: Discogs
Add. Notes: Japanese Edition
Cover incl.: Yes
Encoder: FLAC
Bitrate: ~900 kBit/s (44.1 kHz/16 Bit/s)
Log & Cue incl.: Yes
Size: 246 MB
Password: “slam” (without ” “)


All Downloads/Hosters are compatible

Download 1
KatFile.com
Turbobit.net
Rapidgator.net
Usersdrive.com
Download 2
KatFile.com
Turbobit.net
Rapidgator.net
Usersdrive.com

Tracklist:

1 - It Won't Be Long - 2:11
2 - All I've Got To Do - 2:01
3 - All My Loving - 2:06
4 - Don't Bother Me - 2:26
5 - Little Child - 1:45
6 - Till There Was You - 2:14
7 - Please Mister Postman - 2:34
8 - Roll Over Beethoven - 2:44
9 - Hold Me Tight - 2:29
10 - You Really Got A Hold On Me - 3:00
11 - I Wanna Be Your Man - 1:56
12 - Devil In Her Heart - 2:25
13 - Not A Second Time - 2:05
14 - Money - 2:47

EAC-Log, CUE-Sheed & NFO:

Click to open spoiler
Exact Audio Copy V1.0 beta 1 from 15. November 2010

EAC extraction logfile from 17. March 2015, 6:29

The Beatles / With The Beatles

Used drive : MATSHITADVD-RAM UJ8A0AS Adapter: 0 ID: 1

Read mode : Secure
Utilize accurate stream : Yes
Defeat audio cache : Yes
Make use of C2 pointers : No

Read offset correction : 102
Overread into Lead-In and Lead-Out : No
Fill up missing offset samples with silence : Yes
Delete leading and trailing silent blocks : No
Null samples used in CRC calculations : Yes
Used interface : Native Win32 interface for Win NT & 2000

Used output format : Internal WAV Routines
Sample format : 44.100 Hz; 16 Bit; Stereo

TOC of the extracted CD

Track | Start | Length | Start sector | End sector
———————————————————
1 | 0:00.32 | 2:13.55 | 32 | 10061
2 | 2:14.12 | 2:04.40 | 10062 | 19401
3 | 4:18.52 | 2:09.43 | 19402 | 29119
4 | 6:28.20 | 2:29.27 | 29120 | 40321
5 | 8:57.47 | 1:48.00 | 40322 | 48421
6 | 10:45.47 | 2:16.55 | 48422 | 58676
7 | 13:02.27 | 2:36.55 | 58677 | 70431
8 | 15:39.07 | 2:47.48 | 70432 | 83004
9 | 18:26.55 | 2:32.42 | 83005 | 94446
10 | 20:59.22 | 3:02.68 | 94447 | 108164
11 | 24:02.15 | 1:58.72 | 108165 | 117086
12 | 26:01.12 | 2:27.50 | 117087 | 128161
13 | 28:28.62 | 2:08.25 | 128162 | 137786
14 | 30:37.12 | 2:47.43 | 137787 | 150354

Range status and errors

Selected range

Filename C:\Users\Alex\Music\The Beatles – With The Beatles.wav

Peak level 98.4 %
Extraction speed 0.0 X
Range quality 100.0 %
Test CRC D5AC3BD0
Copy CRC D5AC3BD0
Copy OK

No errors occurred

AccurateRip summary

Track 1 accurately ripped (confidence 4) [6FA0C5A0]
Track 2 accurately ripped (confidence 4) [3E57BE43]
Track 3 accurately ripped (confidence 4) [F7D01EE8]
Track 4 accurately ripped (confidence 4) [5C256834]
Track 5 accurately ripped (confidence 4) [010DE36E]
Track 6 accurately ripped (confidence 4) [8C312D5C]
Track 7 accurately ripped (confidence 4) [D895EEF2]
Track 8 accurately ripped (confidence 4) [849E3E34]
Track 9 accurately ripped (confidence 4) [E8A29FC9]
Track 10 accurately ripped (confidence 4) [26A31487]
Track 11 accurately ripped (confidence 4) [35A5B266]
Track 12 accurately ripped (confidence 4) [BF2FD7F4]
Track 13 accurately ripped (confidence 4) [D56704C3]
Track 14 accurately ripped (confidence 4) [91DD3E00]

All tracks accurately ripped

End of status report

==== Log checksum 00C9E3EE4B1752D3A9CEF92781D26E5B04C848A8588B257B98FDCCFCDBFAFAA1 ====

REM GENRE Rock
REM DATE 1963
REM DISCID B107D40E
REM COMMENT “ExactAudioCopy v1.0b1”
PERFORMER “The Beatles”
TITLE “With The Beatles”
FILE “The Beatles – With The Beatles.wav” WAVE
TRACK 01 AUDIO
TITLE “It Won’t Be Long”
PERFORMER “The Beatles”
INDEX 00 00:00:00
INDEX 01 00:00:32
TRACK 02 AUDIO
TITLE “All I’ve Got To Do”
PERFORMER “The Beatles”
INDEX 00 02:11:37
INDEX 01 02:14:12
TRACK 03 AUDIO
TITLE “All My Loving”
PERFORMER “The Beatles”
INDEX 00 04:16:07
INDEX 01 04:18:52
TRACK 04 AUDIO
TITLE “Don’t Bother Me”
PERFORMER “The Beatles”
INDEX 00 06:25:22
INDEX 01 06:28:20
TRACK 05 AUDIO
TITLE “Litlle Child”
PERFORMER “The Beatles”
INDEX 00 08:54:64
INDEX 01 08:57:47
TRACK 06 AUDIO
TITLE “Till There Was You”
PERFORMER “The Beatles”
INDEX 00 10:42:60
INDEX 01 10:45:47
TRACK 07 AUDIO
TITLE “Please Mister Postman”
PERFORMER “The Beatles”
INDEX 00 12:59:52
INDEX 01 13:02:27
TRACK 08 AUDIO
TITLE “Roll Over Beethoven”
PERFORMER “The Beatles”
INDEX 00 15:36:27
INDEX 01 15:39:07
TRACK 09 AUDIO
TITLE “Hold Me Tight”
PERFORMER “The Beatles”
INDEX 00 18:23:60
INDEX 01 18:26:55
TRACK 10 AUDIO
TITLE “You Really Got A Hold On Me”
PERFORMER “The Beatles”
INDEX 00 20:56:32
INDEX 01 20:59:22
TRACK 11 AUDIO
TITLE “I Wanna Be Your Man”
PERFORMER “The Beatles”
INDEX 00 23:59:25
INDEX 01 24:02:15
TRACK 12 AUDIO
TITLE “Devil In Her Heart”
PERFORMER “The Beatles”
INDEX 00 25:58:35
INDEX 01 26:01:12
TRACK 13 AUDIO
TITLE “Not A Second Time”
PERFORMER “The Beatles”
INDEX 00 28:26:12
INDEX 01 28:28:62
TRACK 14 AUDIO
TITLE “Money”
PERFORMER “The Beatles”
INDEX 00 30:34:40
INDEX 01 30:37:12


Leave a Reply

Your email address will not be published. Required fields are marked *

This site uses Akismet to reduce spam. Learn how your comment data is processed.