The Beatles – The Capitol Albums Vol. 2 Sampler




Artist: The Beatles
Year: 2006
Genre: Rock
Notes: Discogs
Add. Notes:
Cover incl.: Yes
Encoder: FLAC
Bitrate: ~800 kBit/s (44.1 kHz/16 Bit/s)
Log & Cue incl.: Yes
Size: 226,02 MB
Password: “slam” (without ” “)


All Downloads/Hosters are compatible

Download 1
Turbobit.net
KatFile.com
Rapidgator.net
ddl.to
Download 2
Turbobit.net
KatFile.com
Rapidgator.net
ddl.to

Tracklist:

Stereo
1. Baby It's You 
2. Boys 
3. What You're Doing 
4. I Don't Want To Spoil The Party 
5. The Night Before 
6. You've Got To Hide Your Love Away 
7. Think For Yourself 
8. I've Just Seen A Face 
Mono
9. Baby It's You 
10. Boys 
11. What You're Doing 
12. I Don't Want To Spoil The Party 
13. The Night Before 
14. You've Got To Hide Your Love Away 
15. Think For Yourself 
16. I've Just Seen A Face

EAC-Log, CUE-Sheed & NFO:

Click to open spoiler
Exact Audio Copy V1.1 from 23. June 2015

EAC extraction logfile from 19. March 2016, 16:22

The Beatles / The Capitol Albums Vol 2 Sampler

Used drive : HL-DT-STDVD+-RW GH50N Adapter: 1 ID: 0

Read mode : Secure
Utilize accurate stream : Yes
Defeat audio cache : Yes
Make use of C2 pointers : No

Read offset correction : 667
Overread into Lead-In and Lead-Out : No
Fill up missing offset samples with silence : Yes
Delete leading and trailing silent blocks : No
Null samples used in CRC calculations : Yes
Used interface : Native Win32 interface for Win NT & 2000

Used output format : User Defined Encoder
Selected bitrate : 768 kBit/s
Quality : High
Add ID3 tag : No
Command line compressor : C:\Program Files (x86)\Exact Audio Copy\FLAC\FLAC.EXE
Additional command line options : -V -8 -T “Date=%year%” -T “Genre=%genre%” %source%

TOC of the extracted CD

Track | Start | Length | Start sector | End sector
———————————————————
1 | 0:00.00 | 2:42.11 | 0 | 12160
2 | 2:42.11 | 2:27.27 | 12161 | 23212
3 | 5:09.38 | 2:31.59 | 23213 | 34596
4 | 7:41.22 | 2:35.18 | 34597 | 46239
5 | 10:16.40 | 2:36.34 | 46240 | 57973
6 | 12:52.74 | 2:12.03 | 57974 | 67876
7 | 15:05.02 | 2:19.45 | 67877 | 78346
8 | 17:24.47 | 2:06.39 | 78347 | 87835
9 | 19:31.11 | 2:41.63 | 87836 | 99973
10 | 22:12.74 | 2:27.28 | 99974 | 111026
11 | 24:40.27 | 2:31.60 | 111027 | 122411
12 | 27:12.12 | 2:35.17 | 122412 | 134053
13 | 29:47.29 | 2:36.31 | 134054 | 145784
14 | 32:23.60 | 2:12.00 | 145785 | 155684
15 | 34:35.60 | 2:19.45 | 155685 | 166154
16 | 36:55.30 | 2:06.47 | 166155 | 175651

Range status and errors

Selected range

Filename C:\222\Beatles\Capitol Albums Vol2\The Beatles – The Capitol Albums Vol 2 Sampler.wav

Peak level 100.0 %
Extraction speed 2.9 X
Range quality 100.0 %
Test CRC 000D6B42
Copy CRC 000D6B42
Copy OK

No errors occurred

AccurateRip summary

Track 1 accurately ripped (confidence 2) [409977EE] (AR v1)
Track 2 accurately ripped (confidence 2) [8C7430C7] (AR v1)
Track 3 accurately ripped (confidence 2) [E0C011DC] (AR v1)
Track 4 accurately ripped (confidence 2) [5416EE4B] (AR v1)
Track 5 accurately ripped (confidence 2) [5F8DE42F] (AR v1)
Track 6 accurately ripped (confidence 2) [39202942] (AR v1)
Track 7 accurately ripped (confidence 2) [0B85A7EF] (AR v1)
Track 8 accurately ripped (confidence 1) [ECE726E1] (AR v1)
Track 9 accurately ripped (confidence 2) [B8D0DAFF] (AR v1)
Track 10 accurately ripped (confidence 2) [8E65144E] (AR v1)
Track 11 accurately ripped (confidence 2) [69E17DF6] (AR v1)
Track 12 accurately ripped (confidence 2) [95CFB371] (AR v1)
Track 13 accurately ripped (confidence 2) [4C54D4BB] (AR v1)
Track 14 accurately ripped (confidence 2) [B60C8405] (AR v1)
Track 15 accurately ripped (confidence 2) [407B9653] (AR v1)
Track 16 accurately ripped (confidence 2) [545E2348] (AR v1)

All tracks accurately ripped

End of status report

—- CUETools DB Plugin V2.1.6

[CTDB TOCID: 5zql9rxNOlgbEUozHaKZ2e4PArY-] disk not present in database
Submit result: 5zql9rxNOlgbEUozHaKZ2e4PArY- has been uploaded

==== Log checksum 6BE5F2B625F806D7D376B360D4EF3CA9D391CA0AEF99EBA897598D5A1C7370C3 ====

REM GENRE “Classic Rock”
REM DATE 2006
REM DISCID D7092610
REM COMMENT “ExactAudioCopy v1.1”
PERFORMER “The Beatles”
TITLE “The Capitol Albums Vol 2 Sampler”
FILE “The Beatles – The Capitol Albums Vol 2 Sampler.flac” WAVE
TRACK 01 AUDIO
TITLE “Baby It’s You (Stereo)”
PERFORMER “The Beatles”
INDEX 01 00:00:00
TRACK 02 AUDIO
TITLE “Boys (Stereo)”
PERFORMER “The Beatles”
INDEX 01 02:42:11
TRACK 03 AUDIO
TITLE “What You’re Doing (Stereo)”
PERFORMER “The Beatles”
INDEX 01 05:09:38
TRACK 04 AUDIO
TITLE “I Don’t Want To Spoil A Party (Stereo)”
PERFORMER “The Beatles”
INDEX 01 07:41:22
TRACK 05 AUDIO
TITLE “The Night Before (Stereo)”
PERFORMER “The Beatles”
INDEX 01 10:16:40
TRACK 06 AUDIO
TITLE “You’ve Got To Hide Your Love Away (Stereo)”
PERFORMER “The Beatles”
INDEX 01 12:52:74
TRACK 07 AUDIO
TITLE “Think For Yourself (Stereo)”
PERFORMER “The Beatles”
INDEX 01 15:05:02
TRACK 08 AUDIO
TITLE “I’ve Just Seen A Face (Stereo)”
PERFORMER “The Beatles”
INDEX 01 17:24:47
TRACK 09 AUDIO
TITLE “Baby It’s You (Mono)”
PERFORMER “The Beatles”
INDEX 01 19:31:11
TRACK 10 AUDIO
TITLE “Boys (Mono)”
PERFORMER “The Beatles”
INDEX 01 22:12:74
TRACK 11 AUDIO
TITLE “What You’re Doing (Mono)”
PERFORMER “The Beatles”
INDEX 01 24:40:27
TRACK 12 AUDIO
TITLE “I Don’t Want To Spoil A Party (Mono)”
PERFORMER “The Beatles”
INDEX 01 27:12:12
TRACK 13 AUDIO
TITLE “The Night Before (Mono)”
PERFORMER “The Beatles”
INDEX 01 29:47:29
TRACK 14 AUDIO
TITLE “You’ve Got To Hide Your Love Away (Mono)”
PERFORMER “The Beatles”
INDEX 01 32:23:60
TRACK 15 AUDIO
TITLE “Think For Yourself (Mono)”
PERFORMER “The Beatles”
INDEX 01 34:35:60
TRACK 16 AUDIO
TITLE “I’ve Just Seen A Face (Mono)”
PERFORMER “The Beatles”
INDEX 01 36:55:30


Leave a Reply

Your email address will not be published. Required fields are marked *

This site uses Akismet to reduce spam. Learn how your comment data is processed.