The Beatles – The Capitol Albums Vol.2 (Remastered)




Artist: The Beatles
Year: 2006
Genre: Rock
Notes: Discogs
Add. Notes: Remastered
Cover incl.: Yes
Encoder: FLAC
Bitrate: ~700 kBit/s (44.1 kHz/16 Bit/s)
Log & Cue incl.: Yes
Size: 1300,65 MB
Password: “slam” (without ” “)


All Downloads/Hosters are compatible

Download 1
Turbobit.net
KatFile.com
Rapidgator.net
NitroFlare.com
Download 2
Turbobit.net
KatFile.com
Rapidgator.net
NitroFlare.com

Tracklist:

The Early Beatles
Stereo
1-1 - Love Me Do - 2:21
1-2 - Twist And Shout - 2:36
1-3 - Anna - 2:57
1-4 - Chains - 2:26
1-5 - Boys - 2:27
1-6 - Ask Me Why - 2:28
1-7 - Please Please Me - 2:02
1-8 - P.S. I Love You - 2:05
1-9 - Baby It's You - 2:41
1-10 - A Taste Of Honey - 2:05
1-11 - Do You Want To Know A Secret - 2:01
Mono
1-12 - Love Me Do - 2:21
1-13 - Twist And Shout - 2:36
1-14 - Anna - 2:57
1-15 - Chains - 2:26
1-16 - Boys - 2:27
1-17 - Ask Me Why - 2:28
1-18 - Please Please Me - 2:02
1-19 - P.S. I Love You - 2:05
1-20 - Baby It's You - 2:41
1-21 - A Taste Of Honey - 2:05
1-22 - Do You Want To Know A Secret - 1:56

Beatles VI
Stereo
2-1 - Kansas City/Hey Hey Hey Hey - 2:40
2-2 - Eight Days A Week - 2:45
2-3 - You Like Me Too Much - 2:37
2-4 - Bad Boy - 2:21
2-5 - I Don't Want To Spoil The Party - 2:35
2-6 - Words Of Love - 2:06
2-7 - What You're Doing - 2:31
2-8 - Yes It Is - 2:41
2-9 - Dizzy Miss Lizzie - 2:54
2-10 - Tell Me What You See - 2:38
2-11 - Every Little Thing - 2:09
Mono
2-12 - Kansas City/Hey Hey Hey Hey - 2:34
2-13 - Eight Days A Week - 2:47
2-14 - You Like Me Too Much - 2:38
2-15 - Bad Boy - 2:21
2-16 - I Don't Want To Spoil The Party - 2:37
2-17 - Words Of Love - 2:17
2-18 - What You're Doing - 2:35
2-19 - Yes It Is - 2:43
2-20 - Dizzy Miss Lizzie - 2:55
2-21 - Tell Me What You See - 2:39
2-22 - Every Little Thing - 2:02

Help! Original Motion Picture Soundtrack
Stereo
3-1 - Help! - 2:39
3-2 - The Night Before - 2:36
3-3 - From Me To You Fantasy (Instrumental) - 2:07
3-4 - You've Got To Hide Your Love Away - 2:12
3-5 - I Need You - 2:31
3-6 - In The Tyrol (Instrumental) - 2:25
3-7 - Another Girl - 2:08
3-8 - Another Hard Day's Night (Instrumental) - 2:31
3-9 - Ticket To Ride - 3:07
3-10 - The Bitter End/You Can't Do That (Instrumental) - 
2:25
3-11 - You're Gonna Lose That Girl - 2:18
3-12 - The Chase (Instrumental) - 2:30
Mono
3-13 - Help! - 2:39
3-14 - The Night Before - 2:36
3-15 - From Me To You Fantasy (Instrumental) - 2:07
3-16 - You've Got To Hide Your Love Away - 2:12
3-17 - I Need You - 2:31
3-18 - In The Tyrol (Instrumental) - 2:24
3-19 - Another Girl - 2:08
3-20 - Another Hard Day's Night (Instrumental) - 2:31
3-21 - Ticket To Ride - 3:07
3-22 - The Bitter End/You Can't Do That (Instrumental) - 
2:25
3-23 - You're Gonna Lose That Girl - 2:18
3-24 - The Chase (Instrumental) - 2:27

Rubber Soul
Stereo
4-1 - I've Just Seen A Face - 2:06
4-2 - Norwegian Wood (This Bird Has Flown) - 2:06
4-3 - You Won't See Me - 3:23
4-4 - Think For Yourself - 2:19
4-5 - The Word - 2:47
4-6 - Michelle - 2:44
4-7 - It's Only Love - 1:56
4-8 - Girl - 2:30
4-9 - I'm Looking Through You - 2:30
4-10 - In My Life - 2:26
4-11 - Wait - 2:14
4-12 - Run For Your Life - 2:25
Mono
4-13 - I've Just Seen A Face - 2:07
4-14 - Norwegian Wood (This Bird Has Flown) - 2:05
4-15 - You Won't See Me - 3:26
4-16 - Think For Yourself - 2:19
4-17 - The Word - 2:45
4-18 - Michelle - 2:46
4-19 - It's Only Love - 1:57
4-20 - Girl - 2:32
4-21 - I'm Looking Through You - 2:29
4-22 - In My Life - 2:27
4-23 - Wait - 2:15
4-24 - Run For Your Life - 2:21

EAC-Log, CUE-Sheed & NFO:

Click to open spoiler
Exact Audio Copy V1.0 beta 3 from 29. August 2011

EAC extraction logfile from 12. October 2013, 15:35

The Beatles / The Capitol Albums Vol. 2 The Early Beatles (Disc 1)

Used drive : PLEXTOR DVDR PX-891SA Adapter: 1 ID: 0

Read mode : Secure
Utilize accurate stream : Yes
Defeat audio cache : Yes
Make use of C2 pointers : No

Read offset correction : 6
Overread into Lead-In and Lead-Out : No
Fill up missing offset samples with silence : Yes
Delete leading and trailing silent blocks : No
Null samples used in CRC calculations : Yes
Used interface : Native Win32 interface for Win NT & 2000

Used output format : User Defined Encoder
Selected bitrate : 1024 kBit/s
Quality : High
Add ID3 tag : No
Command line compressor : C:\Program Files\Exact Audio Copy\Flac\flac.exe
Additional command line options : -V -8 -T “Genre=%genre%” -T “Artist=%artist%” -T “Title=%title%” -T “Album=%albumtitle%” -T “Date=%year%” -T “Tracknumber=%tracknr%” -T “Comment=%comment%” %source%

TOC of the extracted CD

Track | Start | Length | Start sector | End sector
———————————————————
1 | 0:00.00 | 2:21.59 | 0 | 10633
2 | 2:21.59 | 2:36.15 | 10634 | 22348
3 | 4:57.74 | 2:57.57 | 22349 | 35680
4 | 7:55.56 | 2:26.33 | 35681 | 46663
5 | 10:22.14 | 2:27.27 | 46664 | 57715
6 | 12:49.41 | 2:28.37 | 57716 | 68852
7 | 15:18.03 | 2:02.08 | 68853 | 78010
8 | 17:20.11 | 2:05.16 | 78011 | 87401
9 | 19:25.27 | 2:41.61 | 87402 | 99537
10 | 22:07.13 | 2:05.33 | 99538 | 108945
11 | 24:12.46 | 2:01.35 | 108946 | 118055
12 | 26:14.06 | 2:21.40 | 118056 | 128670
13 | 28:35.46 | 2:36.13 | 128671 | 140383
14 | 31:11.59 | 2:57.59 | 140384 | 153717
15 | 34:09.43 | 2:26.33 | 153718 | 164700
16 | 36:36.01 | 2:27.28 | 164701 | 175753
17 | 39:03.29 | 2:28.36 | 175754 | 186889
18 | 41:31.65 | 2:02.08 | 186890 | 196047
19 | 43:33.73 | 2:05.14 | 196048 | 205436
20 | 45:39.12 | 2:41.63 | 205437 | 217574
21 | 48:21.00 | 2:05.37 | 217575 | 226986
22 | 50:26.37 | 1:56.39 | 226987 | 235725

Range status and errors

Selected range

Filename I:\dafnaplus\2006 – The Capitol Albums Volume 2\The Early Beatles (Disc 1)\The Beatles – The Capitol Albums Vol. 2 The Early Beatles (Disc 1).wav

Peak level 98.0 %
Extraction speed 8.4 X
Range quality 99.9 %
Test CRC E51CC375
Copy CRC E51CC375
Copy OK

No errors occurred

AccurateRip summary

Track 1 accurately ripped (confidence 2) [47FBA916] (AR v2)
Track 2 accurately ripped (confidence 2) [0150B036] (AR v2)
Track 3 accurately ripped (confidence 2) [4046E53F] (AR v2)
Track 4 accurately ripped (confidence 2) [797EB027] (AR v2)
Track 5 accurately ripped (confidence 2) [7D5AFCC5] (AR v2)
Track 6 accurately ripped (confidence 2) [C00A6EA1] (AR v2)
Track 7 accurately ripped (confidence 2) [DD05326F] (AR v2)
Track 8 accurately ripped (confidence 2) [CE931C40] (AR v2)
Track 9 accurately ripped (confidence 2) [A9A9F69B] (AR v2)
Track 10 accurately ripped (confidence 2) [A5B7CB3D] (AR v2)
Track 11 accurately ripped (confidence 2) [C2ED7F5A] (AR v2)
Track 12 accurately ripped (confidence 2) [88322E85] (AR v2)
Track 13 accurately ripped (confidence 2) [6F390903] (AR v2)
Track 14 accurately ripped (confidence 2) [AF658E4E] (AR v2)
Track 15 accurately ripped (confidence 2) [100C45B7] (AR v2)
Track 16 accurately ripped (confidence 2) [4DD0AAAF] (AR v2)
Track 17 accurately ripped (confidence 2) [299737C1] (AR v2)
Track 18 accurately ripped (confidence 2) [C3F7C8F8] (AR v2)
Track 19 accurately ripped (confidence 2) [9022CC59] (AR v2)
Track 20 accurately ripped (confidence 2) [E36DEA19] (AR v2)
Track 21 accurately ripped (confidence 2) [CD69C527] (AR v2)
Track 22 accurately ripped (confidence 2) [83EA0262] (AR v2)

All tracks accurately ripped

End of status report

==== Log checksum 33A58D0E3077374C4969A9CA8B5321F889DA5266F54068A1A1D84CAE358B356F ====

Exact Audio Copy V1.0 beta 3 from 29. August 2011

EAC extraction logfile from 12. October 2013, 15:55

The Beatles / The Capitol Albums Vol. 2 Help! (Disc 3)

Used drive : PLEXTOR DVDR PX-891SA Adapter: 1 ID: 0

Read mode : Secure
Utilize accurate stream : Yes
Defeat audio cache : Yes
Make use of C2 pointers : No

Read offset correction : 6
Overread into Lead-In and Lead-Out : No
Fill up missing offset samples with silence : Yes
Delete leading and trailing silent blocks : No
Null samples used in CRC calculations : Yes
Used interface : Native Win32 interface for Win NT & 2000

Used output format : User Defined Encoder
Selected bitrate : 1024 kBit/s
Quality : High
Add ID3 tag : No
Command line compressor : C:\Program Files\Exact Audio Copy\Flac\flac.exe
Additional command line options : -V -8 -T “Genre=%genre%” -T “Artist=%artist%” -T “Title=%title%” -T “Album=%albumtitle%” -T “Date=%year%” -T “Tracknumber=%tracknr%” -T “Comment=%comment%” %source%

TOC of the extracted CD

Track | Start | Length | Start sector | End sector
———————————————————
1 | 0:00.00 | 2:39.29 | 0 | 11953
2 | 2:39.29 | 2:36.34 | 11954 | 23687
3 | 5:15.63 | 2:07.58 | 23688 | 33270
4 | 7:23.46 | 2:12.03 | 33271 | 43173
5 | 9:35.49 | 2:31.29 | 43174 | 54527
6 | 12:07.03 | 2:25.45 | 54528 | 65447
7 | 14:32.48 | 2:08.12 | 65448 | 75059
8 | 16:40.60 | 2:31.37 | 75060 | 86421
9 | 19:12.22 | 3:07.17 | 86422 | 100463
10 | 22:19.39 | 2:25.63 | 100464 | 111401
11 | 24:45.27 | 2:18.53 | 111402 | 121804
12 | 27:04.05 | 2:30.59 | 121805 | 133113
13 | 29:34.64 | 2:39.03 | 133114 | 145041
14 | 32:13.67 | 2:36.31 | 145042 | 156772
15 | 34:50.23 | 2:07.59 | 156773 | 166356
16 | 36:58.07 | 2:12.00 | 166357 | 176256
17 | 39:10.07 | 2:31.31 | 176257 | 187612
18 | 41:41.38 | 2:24.47 | 187613 | 198459
19 | 44:06.10 | 2:08.11 | 198460 | 208070
20 | 46:14.21 | 2:31.37 | 208071 | 219432
21 | 48:45.58 | 3:07.18 | 219433 | 233475
22 | 51:53.01 | 2:25.62 | 233476 | 244412
23 | 54:18.63 | 2:18.57 | 244413 | 254819
24 | 56:37.45 | 2:27.51 | 254820 | 265895

Range status and errors

Selected range

Filename I:\dafnaplus\2006 – The Capitol Albums Volume 2\Help! (Disc 3)\The Beatles – The Capitol Albums Vol. 2 Help! (Disc 3).wav

Peak level 96.6 %
Extraction speed 8.7 X
Range quality 100.0 %
Test CRC CD6D142C
Copy CRC CD6D142C
Copy OK

No errors occurred

AccurateRip summary

Track 1 accurately ripped (confidence 2) [92098A0A] (AR v2)
Track 2 accurately ripped (confidence 2) [8E2EF831] (AR v2)
Track 3 accurately ripped (confidence 2) [58280A68] (AR v2)
Track 4 accurately ripped (confidence 2) [411DD67C] (AR v2)
Track 5 accurately ripped (confidence 2) [AED4F5C1] (AR v2)
Track 6 accurately ripped (confidence 2) [97269417] (AR v2)
Track 7 accurately ripped (confidence 2) [79A8C10F] (AR v2)
Track 8 accurately ripped (confidence 2) [C001D00A] (AR v2)
Track 9 accurately ripped (confidence 2) [74457EBB] (AR v2)
Track 10 accurately ripped (confidence 2) [822E3E61] (AR v2)
Track 11 accurately ripped (confidence 2) [FE0AC222] (AR v2)
Track 12 accurately ripped (confidence 2) [1F46232C] (AR v2)
Track 13 accurately ripped (confidence 2) [D91F634C] (AR v2)
Track 14 accurately ripped (confidence 2) [0D676B5D] (AR v2)
Track 15 accurately ripped (confidence 2) [3F4EBDD2] (AR v2)
Track 16 accurately ripped (confidence 2) [E4FEDFC8] (AR v2)
Track 17 accurately ripped (confidence 2) [47106831] (AR v2)
Track 18 accurately ripped (confidence 2) [6083191A] (AR v2)
Track 19 accurately ripped (confidence 2) [82CA5290] (AR v2)
Track 20 accurately ripped (confidence 2) [FF2ED1F5] (AR v2)
Track 21 accurately ripped (confidence 2) [D1BB2417] (AR v2)
Track 22 accurately ripped (confidence 2) [875D63D3] (AR v2)
Track 23 accurately ripped (confidence 2) [71E71A61] (AR v2)
Track 24 accurately ripped (confidence 2) [8D52E6D5] (AR v2)

All tracks accurately ripped

End of status report

==== Log checksum B7A95D0CD98341E6F0BE1E1D433C4548BF20AC5B9970F8B81BA2E1FD72808DCC ====

Exact Audio Copy V1.0 beta 3 from 29. August 2011

EAC extraction logfile from 12. October 2013, 17:51

The Beatles / The Capitol Albums Beatles VI (Disc 2)

Used drive : PLEXTOR DVDR PX-891SA Adapter: 1 ID: 0

Read mode : Secure
Utilize accurate stream : Yes
Defeat audio cache : Yes
Make use of C2 pointers : No

Read offset correction : 6
Overread into Lead-In and Lead-Out : No
Fill up missing offset samples with silence : Yes
Delete leading and trailing silent blocks : No
Null samples used in CRC calculations : Yes
Used interface : Native Win32 interface for Win NT & 2000

Used output format : User Defined Encoder
Selected bitrate : 1024 kBit/s
Quality : High
Add ID3 tag : No
Command line compressor : C:\Program Files\Exact Audio Copy\Flac\flac.exe
Additional command line options : -V -8 -T “Genre=%genre%” -T “Artist=%artist%” -T “Title=%title%” -T “Album=%albumtitle%” -T “Date=%year%” -T “Tracknumber=%tracknr%” -T “Comment=%comment%” %source%

TOC of the extracted CD

Track | Start | Length | Start sector | End sector
———————————————————
1 | 0:00.00 | 2:40.60 | 0 | 12059
2 | 2:40.60 | 2:45.18 | 12060 | 24452
3 | 5:26.03 | 2:37.30 | 24453 | 36257
4 | 8:03.33 | 2:21.39 | 36258 | 46871
5 | 10:24.72 | 2:35.18 | 46872 | 58514
6 | 13:00.15 | 2:06.45 | 58515 | 68009
7 | 15:06.60 | 2:31.59 | 68010 | 79393
8 | 17:38.44 | 2:41.68 | 79394 | 91536
9 | 20:20.37 | 2:54.74 | 91537 | 104660
10 | 23:15.36 | 2:38.02 | 104661 | 116512
11 | 25:53.38 | 2:09.05 | 116513 | 126192
12 | 28:02.43 | 2:34.40 | 126193 | 137782
13 | 30:37.08 | 2:47.15 | 137783 | 150322
14 | 33:24.23 | 2:38.28 | 150323 | 162200
15 | 36:02.51 | 2:21.05 | 162201 | 172780
16 | 38:23.56 | 2:37.16 | 172781 | 184571
17 | 41:00.72 | 2:17.63 | 184572 | 194909
18 | 43:18.60 | 2:35.24 | 194910 | 206558
19 | 45:54.09 | 2:43.14 | 206559 | 218797
20 | 48:37.23 | 2:55.51 | 218798 | 231973
21 | 51:32.74 | 2:39.07 | 231974 | 243905
22 | 54:12.06 | 2:02.66 | 243906 | 253121

Range status and errors

Selected range

Filename I:\dafnaplus\2006 – The Capitol Albums Volume 2\Beatles VI (Disc 2)\The Beatles – The Capitol Albums Beatles VI (Disc 2).wav

Peak level 100.0 %
Extraction speed 8.0 X
Range quality 99.9 %
Test CRC 399487B0
Copy CRC 399487B0
Copy OK

No errors occurred

AccurateRip summary

Track 1 accurately ripped (confidence 2) [D61D4E7A] (AR v2)
Track 2 accurately ripped (confidence 2) [ED873417] (AR v2)
Track 3 accurately ripped (confidence 2) [A09538A9] (AR v2)
Track 4 accurately ripped (confidence 2) [778FE63F] (AR v2)
Track 5 accurately ripped (confidence 2) [F73A1274] (AR v2)
Track 6 accurately ripped (confidence 2) [0D2B3539] (AR v2)
Track 7 accurately ripped (confidence 2) [176726E1] (AR v2)
Track 8 accurately ripped (confidence 2) [222FB7A8] (AR v2)
Track 9 accurately ripped (confidence 2) [270047C6] (AR v2)
Track 10 accurately ripped (confidence 2) [DB4D5D4C] (AR v2)
Track 11 accurately ripped (confidence 2) [6263002C] (AR v2)
Track 12 accurately ripped (confidence 2) [FE2EEF36] (AR v2)
Track 13 accurately ripped (confidence 2) [9B587BA9] (AR v2)
Track 14 accurately ripped (confidence 2) [D367E4A6] (AR v2)
Track 15 accurately ripped (confidence 2) [F5815750] (AR v2)
Track 16 accurately ripped (confidence 2) [547ECDCA] (AR v2)
Track 17 accurately ripped (confidence 2) [13DC6AB1] (AR v2)
Track 18 accurately ripped (confidence 2) [F7669199] (AR v2)
Track 19 accurately ripped (confidence 2) [EAA86468] (AR v2)
Track 20 accurately ripped (confidence 2) [DB5B92F8] (AR v2)
Track 21 accurately ripped (confidence 2) [F5043544] (AR v2)
Track 22 accurately ripped (confidence 2) [7C4A6099] (AR v2)

All tracks accurately ripped

End of status report

==== Log checksum 9AD04F1FB1371B6C9B4ADA0931EBF445C92651338A59905BECE5ED6DE5948CA3 ====

Exact Audio Copy V1.0 beta 3 from 29. August 2011

EAC extraction logfile from 12. October 2013, 17:11

The Beatles / Capitol Albums Vol. 2 Rubber Soul (Disc 4)

Used drive : PLEXTOR DVDR PX-891SA Adapter: 1 ID: 0

Read mode : Secure
Utilize accurate stream : Yes
Defeat audio cache : Yes
Make use of C2 pointers : No

Read offset correction : 6
Overread into Lead-In and Lead-Out : No
Fill up missing offset samples with silence : Yes
Delete leading and trailing silent blocks : No
Null samples used in CRC calculations : Yes
Used interface : Native Win32 interface for Win NT & 2000

Used output format : User Defined Encoder
Selected bitrate : 1024 kBit/s
Quality : High
Add ID3 tag : No
Command line compressor : C:\Program Files\Exact Audio Copy\Flac\flac.exe
Additional command line options : -V -8 -T “Genre=%genre%” -T “Artist=%artist%” -T “Title=%title%” -T “Album=%albumtitle%” -T “Date=%year%” -T “Tracknumber=%tracknr%” -T “Comment=%comment%” %source%

TOC of the extracted CD

Track | Start | Length | Start sector | End sector
———————————————————
1 | 0:00.00 | 2:06.39 | 0 | 9488
2 | 2:06.39 | 2:06.16 | 9489 | 18954
3 | 4:12.55 | 3:23.53 | 18955 | 34232
4 | 7:36.33 | 2:19.45 | 34233 | 44702
5 | 9:56.03 | 2:47.06 | 44703 | 57233
6 | 12:43.09 | 2:44.41 | 57234 | 69574
7 | 15:27.50 | 1:56.21 | 69575 | 78295
8 | 17:23.71 | 2:30.60 | 78296 | 89605
9 | 19:54.56 | 2:30.59 | 89606 | 100914
10 | 22:25.40 | 2:26.71 | 100915 | 111935
11 | 24:52.36 | 2:14.41 | 111936 | 122026
12 | 27:07.02 | 2:25.19 | 122027 | 132920
13 | 29:32.21 | 2:07.28 | 132921 | 142473
14 | 31:39.49 | 2:05.37 | 142474 | 151885
15 | 33:45.11 | 3:26.72 | 151886 | 167407
16 | 37:12.08 | 2:19.46 | 167408 | 177878
17 | 39:31.54 | 2:45.46 | 177879 | 190299
18 | 42:17.25 | 2:46.26 | 190300 | 202775
19 | 45:03.51 | 1:57.10 | 202776 | 211560
20 | 47:00.61 | 2:32.10 | 211561 | 222970
21 | 49:32.71 | 2:29.71 | 222971 | 234216
22 | 52:02.67 | 2:27.07 | 234217 | 245248
23 | 54:29.74 | 2:15.15 | 245249 | 255388
24 | 56:45.14 | 2:21.38 | 255389 | 266001

Range status and errors

Selected range

Filename I:\dafnaplus\2006 – The Capitol Albums Volume 2\Rubber Soul (Disc 4)\The Beatles – Capitol Albums Vol. 2 Rubber Soul (Disc 4).wav

Peak level 96.6 %
Extraction speed 8.7 X
Range quality 100.0 %
Test CRC 56B64A3F
Copy CRC 56B64A3F
Copy OK

No errors occurred

AccurateRip summary

Track 1 accurately ripped (confidence 3) [169B5DB9] (AR v2)
Track 2 accurately ripped (confidence 3) [9EBF6B0A] (AR v2)
Track 3 accurately ripped (confidence 3) [3D0B7C1E] (AR v2)
Track 4 accurately ripped (confidence 3) [C42A2674] (AR v2)
Track 5 accurately ripped (confidence 3) [74A9B5A4] (AR v2)
Track 6 accurately ripped (confidence 3) [FEDF8B06] (AR v2)
Track 7 accurately ripped (confidence 3) [78CC379C] (AR v2)
Track 8 accurately ripped (confidence 3) [265F6F05] (AR v2)
Track 9 accurately ripped (confidence 3) [5C875E4E] (AR v2)
Track 10 accurately ripped (confidence 3) [35F4ABFE] (AR v2)
Track 11 accurately ripped (confidence 3) [D05A2090] (AR v2)
Track 12 accurately ripped (confidence 3) [186F1227] (AR v2)
Track 13 accurately ripped (confidence 3) [74DE3C1A] (AR v2)
Track 14 accurately ripped (confidence 3) [A2B231E5] (AR v2)
Track 15 accurately ripped (confidence 3) [193FC742] (AR v2)
Track 16 accurately ripped (confidence 3) [D30F7250] (AR v2)
Track 17 accurately ripped (confidence 3) [DB9D4E93] (AR v2)
Track 18 accurately ripped (confidence 3) [236E4653] (AR v2)
Track 19 accurately ripped (confidence 3) [535D4393] (AR v2)
Track 20 accurately ripped (confidence 3) [690E1D15] (AR v2)
Track 21 accurately ripped (confidence 3) [1B859C00] (AR v2)
Track 22 accurately ripped (confidence 3) [3261961A] (AR v2)
Track 23 accurately ripped (confidence 3) [ED4961DF] (AR v2)
Track 24 accurately ripped (confidence 3) [7FBC75F1] (AR v2)

All tracks accurately ripped

End of status report

==== Log checksum E52B4C0FED768811A5D6D4531953693F73308A00BC696F55EA607702165F80EC ====

REM GENRE Rock
REM DATE 2006
REM DISCID 300D2E16
REM COMMENT “ExactAudioCopy v1.0b3”
CATALOG 0094635749922
PERFORMER “The Beatles”
TITLE “The Capitol Albums Beatles VI (Disc 2)”
FILE “The Beatles – The Capitol Albums Beatles VI (Disc 2).flac” WAVE
TRACK 01 AUDIO
TITLE “Kansas City”
PERFORMER “The Beatles”
ISRC GBAYE0600355
INDEX 01 00:00:00
TRACK 02 AUDIO
TITLE “Eight Days A Week”
PERFORMER “The Beatles”
ISRC GBAYE0600356
INDEX 01 02:40:60
TRACK 03 AUDIO
TITLE “You Like Me Too Much”
PERFORMER “The Beatles”
ISRC GBAYE0600357
INDEX 01 05:26:03
TRACK 04 AUDIO
TITLE “Bad Boy”
PERFORMER “The Beatles”
ISRC GBAYE0600358
INDEX 01 08:03:33
TRACK 05 AUDIO
TITLE “I Don’t Want To Spoil The Party”
PERFORMER “The Beatles”
ISRC GBAYE0600359
INDEX 01 10:24:72
TRACK 06 AUDIO
TITLE “Words Of Love”
PERFORMER “The Beatles”
ISRC GBAYE0600360
INDEX 01 13:00:15
TRACK 07 AUDIO
TITLE “What You’re Doing”
PERFORMER “The Beatles”
ISRC GBAYE0600361
INDEX 00 15:03:60
INDEX 01 15:06:60
TRACK 08 AUDIO
TITLE “Yes It Is”
PERFORMER “The Beatles”
ISRC GBAYE0600362
INDEX 01 17:38:44
TRACK 09 AUDIO
TITLE “Dizzy Miss Lizzie”
PERFORMER “The Beatles”
ISRC GBAYE0600363
INDEX 01 20:20:37
TRACK 10 AUDIO
TITLE “Tell Me What You See”
PERFORMER “The Beatles”
ISRC GBAYE0600364
INDEX 01 23:15:36
TRACK 11 AUDIO
TITLE “Every Little Thing”
PERFORMER “The Beatles”
ISRC GBAYE0600365
INDEX 01 25:53:38
TRACK 12 AUDIO
TITLE “Kansas City (mono)”
PERFORMER “The Beatles”
ISRC GBAYE0600366
INDEX 00 27:57:48
INDEX 01 28:02:43
TRACK 13 AUDIO
TITLE “Eight Days A Week (mono)”
PERFORMER “The Beatles”
ISRC GBAYE0600367
INDEX 01 30:37:08
TRACK 14 AUDIO
TITLE “You Like Me Too Much (mono)”
PERFORMER “The Beatles”
ISRC GBAYE0600368
INDEX 01 33:24:23
TRACK 15 AUDIO
TITLE “Bad Boy (mono)”
PERFORMER “The Beatles”
ISRC GBAYE0600369
INDEX 01 36:02:51
TRACK 16 AUDIO
TITLE “I Don’t Want To Spoil The Party (mono)”
PERFORMER “The Beatles”
ISRC GBAYE0600370
INDEX 01 38:23:56
TRACK 17 AUDIO
TITLE “Words Of Love (mono)”
PERFORMER “The Beatles”
ISRC GBAYE0600371
INDEX 01 41:00:72
TRACK 18 AUDIO
TITLE “What You’re Doing (mono)”
PERFORMER “The Beatles”
ISRC GBAYE0600372
INDEX 00 43:15:60
INDEX 01 43:18:60
TRACK 19 AUDIO
TITLE “Yes It Is (mono)”
PERFORMER “The Beatles”
ISRC GBAYE0600373
INDEX 01 45:54:09
TRACK 20 AUDIO
TITLE “Dizzy Miss Lizzie (mono)”
PERFORMER “The Beatles”
ISRC GBAYE0600374
INDEX 01 48:37:23
TRACK 21 AUDIO
TITLE “Tell Me What You See (mono)”
PERFORMER “The Beatles”
ISRC GBAYE0600375
INDEX 01 51:32:74
TRACK 22 AUDIO
TITLE “Every Little Thing (mono)”
PERFORMER “The Beatles”
ISRC GBAYE0600376
INDEX 01 54:12:06

REM GENRE Rock
REM DATE 2006
REM DISCID 500DD918
REM COMMENT “ExactAudioCopy v1.0b3”
PERFORMER “The Beatles”
TITLE “The Capitol Albums Vol. 2 Help! (Disc 3)”
FILE “The Beatles – The Capitol Albums Vol. 2 Help! (Disc 3).flac” WAVE
TRACK 01 AUDIO
TITLE “Help!”
PERFORMER “The Beatles”
ISRC GBAYE0600424
INDEX 01 00:00:00
TRACK 02 AUDIO
TITLE “The Night Before”
PERFORMER “The Beatles”
ISRC GBAYE0600425
INDEX 01 02:39:29
TRACK 03 AUDIO
TITLE “From Me To You Fantasy (Instrumental)”
PERFORMER “The Beatles”
ISRC GBAYE0600426
INDEX 01 05:15:63
TRACK 04 AUDIO
TITLE “You’ve Got To Hide Your Love Away”
PERFORMER “The Beatles”
ISRC GBAYE0600427
INDEX 01 07:23:46
TRACK 05 AUDIO
TITLE “I Need You”
PERFORMER “The Beatles”
ISRC GBAYE0600428
INDEX 01 09:35:49
TRACK 06 AUDIO
TITLE “In The Tyrol (Instrumental)”
PERFORMER “The Beatles”
ISRC GBAYE0600429
INDEX 01 12:07:03
TRACK 07 AUDIO
TITLE “Another Girl”
PERFORMER “The Beatles”
ISRC GBAYE0600430
INDEX 00 14:29:41
INDEX 01 14:32:48
TRACK 08 AUDIO
TITLE “Another Hard Day’s Night (Instrumental)”
PERFORMER “The Beatles”
ISRC GBAYE0600431
INDEX 01 16:40:60
TRACK 09 AUDIO
TITLE “Ticket To Ride”
PERFORMER “The Beatles”
ISRC GBAYE0600432
INDEX 01 19:12:22
TRACK 10 AUDIO
TITLE “The Bitter End – You Can’t Do That (Instrumental)”
PERFORMER “The Beatles”
ISRC GBAYE0600433
INDEX 01 22:19:39
TRACK 11 AUDIO
TITLE “You’re Gonna Lose That Girl”
PERFORMER “The Beatles”
ISRC GBAYE0600434
INDEX 01 24:45:27
TRACK 12 AUDIO
TITLE “The Chase (Instrumental)”
PERFORMER “The Beatles”
ISRC GBAYE0600435
INDEX 01 27:04:05
TRACK 13 AUDIO
TITLE “Help! (mono)”
PERFORMER “The Beatles”
ISRC GBAYE0600401
INDEX 00 29:30:14
INDEX 01 29:34:64
TRACK 14 AUDIO
TITLE “The Night Before (mono)”
PERFORMER “The Beatles”
ISRC GBAYE0600402
INDEX 01 32:13:67
TRACK 15 AUDIO
TITLE “From Me To You Fantasy (Instrumental) (mono)”
PERFORMER “The Beatles”
ISRC GBAYE0600403
INDEX 01 34:50:23
TRACK 16 AUDIO
TITLE “You’ve Got To Hide Your Love Away (mono)”
PERFORMER “The Beatles”
ISRC GBAYE0600404
INDEX 01 36:58:07
TRACK 17 AUDIO
TITLE “I Need You (mono)”
PERFORMER “The Beatles”
ISRC GBAYE0600405
INDEX 01 39:10:07
TRACK 18 AUDIO
TITLE “In The Tyrol (Instrumental) (mono)”
PERFORMER “The Beatles”
ISRC GBAYE0600410
INDEX 01 41:41:38
TRACK 19 AUDIO
TITLE “Another Girl (mono)”
PERFORMER “The Beatles”
ISRC GBAYE0600406
INDEX 00 44:03:33
INDEX 01 44:06:10
TRACK 20 AUDIO
TITLE “Another Hard Day’s Night (Instrumental) (mono)”
PERFORMER “The Beatles”
ISRC GBAYE0600409
INDEX 01 46:14:21
TRACK 21 AUDIO
TITLE “Ticket To Ride (mono)”
PERFORMER “The Beatles”
ISRC GBAYE0600407
INDEX 01 48:45:58
TRACK 22 AUDIO
TITLE “The Bitter End – You Can’t Do That (Instrumental) (mono)”
PERFORMER “The Beatles”
ISRC GBAYE0600411
INDEX 01 51:53:01
TRACK 23 AUDIO
TITLE “You’re Gonna Lose That Girl (mono)”
PERFORMER “The Beatles”
ISRC GBAYE0600408
INDEX 01 54:18:63
TRACK 24 AUDIO
TITLE “The Chase (Instrumental) (mono)”
PERFORMER “The Beatles”
ISRC GBAYE0600412
INDEX 01 56:37:45

REM GENRE Rock
REM DATE 2006
REM DISCID 330C4716
REM COMMENT “ExactAudioCopy v1.0b3”
PERFORMER “The Beatles”
TITLE “The Capitol Albums Vol. 2 The Early Beatles (Disc 1) ”
FILE “The Beatles – The Capitol Albums Vol. 2 The Early Beatles (Disc 1).flac” WAVE
TRACK 01 AUDIO
TITLE “Love Me Do ”
PERFORMER “The Beatles”
ISRC GBAYE0600333
INDEX 01 00:00:00
TRACK 02 AUDIO
TITLE “Twist And Shout”
PERFORMER “The Beatles”
ISRC GBAYE0600334
INDEX 01 02:21:59
TRACK 03 AUDIO
TITLE “Anna (Go To Him) ”
PERFORMER “The Beatles”
ISRC GBAYE0600335
INDEX 01 04:57:74
TRACK 04 AUDIO
TITLE “Chains ”
PERFORMER “The Beatles”
ISRC GBAYE0600336
INDEX 01 07:55:56
TRACK 05 AUDIO
TITLE “Boys ”
PERFORMER “The Beatles”
ISRC GBAYE0600337
INDEX 01 10:22:14
TRACK 06 AUDIO
TITLE “Ask Me Why ”
PERFORMER “The Beatles”
ISRC GBAYE0600338
INDEX 01 12:49:41
TRACK 07 AUDIO
TITLE “Please Please Me ”
PERFORMER “The Beatles”
ISRC GBAYE0600339
INDEX 00 15:15:07
INDEX 01 15:18:03
TRACK 08 AUDIO
TITLE “P.S. I Love You ”
PERFORMER “The Beatles”
ISRC GBAYE0600340
INDEX 01 17:20:11
TRACK 09 AUDIO
TITLE “Baby It’s You ”
PERFORMER “The Beatles”
ISRC GBAYE0600341
INDEX 01 19:25:27
TRACK 10 AUDIO
TITLE “A Taste Of Honey ”
PERFORMER “The Beatles”
ISRC GBAYE0600342
INDEX 01 22:07:13
TRACK 11 AUDIO
TITLE “Do You Want To Know A Secret ”
PERFORMER “The Beatles”
ISRC GBAYE0600343
INDEX 01 24:12:46
TRACK 12 AUDIO
TITLE “Love Me Do (mono)”
PERFORMER “The Beatles”
ISRC GBAYE0600344
INDEX 00 26:09:06
INDEX 01 26:14:06
TRACK 13 AUDIO
TITLE “Twist And Shout (mono)”
PERFORMER “The Beatles”
ISRC GBAYE0600345
INDEX 01 28:35:46
TRACK 14 AUDIO
TITLE “Anna (Go To Him) (mono)”
PERFORMER “The Beatles”
ISRC GBAYE0600346
INDEX 01 31:11:59
TRACK 15 AUDIO
TITLE “Chains (mono)”
PERFORMER “The Beatles”
ISRC GBAYE0600347
INDEX 01 34:09:43
TRACK 16 AUDIO
TITLE “Boys (mono)”
PERFORMER “The Beatles”
ISRC GBAYE0600348
INDEX 01 36:36:01
TRACK 17 AUDIO
TITLE “Ask Me Why (mono)”
PERFORMER “The Beatles”
ISRC GBAYE0600349
INDEX 01 39:03:29
TRACK 18 AUDIO
TITLE “Please Please Me (mono)”
PERFORMER “The Beatles”
ISRC GBAYE0600350
INDEX 00 41:28:74
INDEX 01 41:31:65
TRACK 19 AUDIO
TITLE “P.S. I Love You (mono)”
PERFORMER “The Beatles”
ISRC GBAYE0600351
INDEX 01 43:33:73
TRACK 20 AUDIO
TITLE “Baby It’s You (mono)”
PERFORMER “The Beatles”
ISRC GBAYE0600352
INDEX 01 45:39:12
TRACK 21 AUDIO
TITLE “A Taste Of Honey (mono)”
PERFORMER “The Beatles”
ISRC GBAYE0600353
INDEX 01 48:21:00
TRACK 22 AUDIO
TITLE “Do You Want To Know A Secret (mono)”
PERFORMER “The Beatles”
ISRC GBAYE0600354
INDEX 01 50:26:37

REM GENRE Rock
REM DATE 2006
REM DISCID 610DDA18
REM COMMENT “ExactAudioCopy v1.0b3”
CATALOG 0094635750126
PERFORMER “The Beatles”
TITLE “Capitol Albums Vol. 2 Rubber Soul (Disc 4) ”
FILE “The Beatles – Capitol Albums Vol. 2 Rubber Soul (Disc 4).flac” WAVE
TRACK 01 AUDIO
TITLE “I’ve Just Seen A Face ”
PERFORMER “The Beatles”
ISRC GBAYE0600377
INDEX 01 00:00:00
TRACK 02 AUDIO
TITLE “Norwegian Wood (This Bird Has Flown)”
PERFORMER “The Beatles”
ISRC GBAYE0600378
INDEX 01 02:06:39
TRACK 03 AUDIO
TITLE “You Won’t See Me ”
PERFORMER “The Beatles”
ISRC GBAYE0600379
INDEX 01 04:12:55
TRACK 04 AUDIO
TITLE “Think For Yourself ”
PERFORMER “The Beatles”
ISRC GBAYE0600380
INDEX 01 07:36:33
TRACK 05 AUDIO
TITLE “The Word ”
PERFORMER “The Beatles”
ISRC GBAYE0600381
INDEX 01 09:56:03
TRACK 06 AUDIO
TITLE “Michelle ”
PERFORMER “The Beatles”
ISRC GBAYE0600382
INDEX 01 12:43:09
TRACK 07 AUDIO
TITLE “It’s Only Love ”
PERFORMER “The Beatles”
ISRC GBAYE0600383
INDEX 00 15:24:56
INDEX 01 15:27:50
TRACK 08 AUDIO
TITLE “Girl ”
PERFORMER “The Beatles”
ISRC GBAYE0600384
INDEX 01 17:23:71
TRACK 09 AUDIO
TITLE “I’m Looking Through You ”
PERFORMER “The Beatles”
ISRC GBAYE0600385
INDEX 01 19:54:56
TRACK 10 AUDIO
TITLE “In My Life ”
PERFORMER “The Beatles”
ISRC GBAYE0600386
INDEX 01 22:25:40
TRACK 11 AUDIO
TITLE “Wait ”
PERFORMER “The Beatles”
ISRC GBAYE0600387
INDEX 01 24:52:36
TRACK 12 AUDIO
TITLE “Run For Your Life ”
PERFORMER “The Beatles”
ISRC GBAYE0600388
INDEX 01 27:07:02
TRACK 13 AUDIO
TITLE “I’ve Just Seen A Face (mono)”
PERFORMER “The Beatles”
ISRC GBAYE0600389
INDEX 00 29:27:21
INDEX 01 29:32:21
TRACK 14 AUDIO
TITLE “Norwegian Wood (This Bird Has Flown) (mono)”
PERFORMER “The Beatles”
ISRC GBAYE0600390
INDEX 01 31:39:49
TRACK 15 AUDIO
TITLE “You Won’t See Me (mono)”
PERFORMER “The Beatles”
ISRC GBAYE0600391
INDEX 01 33:45:11
TRACK 16 AUDIO
TITLE “Think For Yourself (mono)”
PERFORMER “The Beatles”
ISRC GBAYE0600392
INDEX 01 37:12:08
TRACK 17 AUDIO
TITLE “The Word (mono)”
PERFORMER “The Beatles”
ISRC GBAYE0600393
INDEX 01 39:31:54
TRACK 18 AUDIO
TITLE “Michelle (mono)”
PERFORMER “The Beatles”
ISRC GBAYE0600394
INDEX 01 42:17:25
TRACK 19 AUDIO
TITLE “It’s Only Love (mono)”
PERFORMER “The Beatles”
ISRC GBAYE0600395
INDEX 00 45:00:44
INDEX 01 45:03:51
TRACK 20 AUDIO
TITLE “Girl (mono)”
PERFORMER “The Beatles”
ISRC GBAYE0600396
INDEX 01 47:00:61
TRACK 21 AUDIO
TITLE “I’m Looking Through You (mono)”
PERFORMER “The Beatles”
ISRC GBAYE0600397
INDEX 01 49:32:71
TRACK 22 AUDIO
TITLE “In My Life (mono)”
PERFORMER “The Beatles”
ISRC GBAYE0600398
INDEX 01 52:02:67
TRACK 23 AUDIO
TITLE “Wait (mono)”
PERFORMER “The Beatles”
ISRC GBAYE0600399
INDEX 01 54:29:74
TRACK 24 AUDIO
TITLE “Run For Your Life (mono)”
PERFORMER “The Beatles”
ISRC GBAYE0600400
INDEX 01 56:45:14


Leave a Reply

Your email address will not be published. Required fields are marked *

Enter the text from the image below
 

This site uses Akismet to reduce spam. Learn how your comment data is processed.