The Beatles – The Capitol Albums Vol.1




[Total: 0    Average: 0/5]

Artist: The Beatles
Year: 2004
Genre: Rock
Notes: Discogs
Add. Notes:
Cover incl.: Yes
Encoder: FLAC
Bitrate: ~800 kBit/s (44.1 kHz/16 Bit/s)
Log & Cue incl.: Yes
Size: 1313,78 MB
Password: “slam” (without ” “)


All Downloads/Hosters are compatible

Download 1
Share-online.biz
KatFile.com
Rapidgator.net
Turbobit.net
Download 2
Share-online.biz
KatFile.com
Rapidgator.net
Turbobit.net

Tracklist:

Meet The Beatles!
Stereo
1-1 - I Want To Hold Your Hand - 2:25
1-2 - I Saw Her Standing There - 2:55
1-3 - This Boy - 2:15
1-4 - It Won't Be Long - 2:13
1-5 - All I've Got To Do - 2:04
1-6 - All My Loving - 2:09
1-7 - Don't Bother Me - 2:29
1-8 - Little Child - 1:47
1-9 - Till There Was You - 2:15
1-10 - Hold Me Tight - 2:33
1-11 - I Wanna Be Your Man - 2:00
1-12 - Not A Second Time - 2:11
Mono
1-13 - I Want To Hold Your Hand - 2:27
1-14 - I Saw Her Standing There - 2:54
1-15 - This Boy - 2:15
1-16 - It Won't Be Long - 2:13
1-17 - All I've Got To Do - 2:04
1-18 - All My Loving - 2:09
1-19 - Don't Bother Me - 2:29
1-20 - Little Child - 1:47
1-21 - Till There Was You - 2:15
1-22 - Hold Me Tight - 2:33
1-23 - I Wanna Be Your Man - 2:00
1-24 - Not A Second Time - 2:11

The Beatles' Second Album
Stereo
2-1 - Roll Over Beethoven - 2:49
2-2 - Thank You Girl - 2:07
2-3 - You Really Got A Hold On Me - 3:05
2-4 - Devil In Her Heart - 2:30
2-5 - Money (That's What I Want) - 2:53
2-6 - You Can't Do That - 2:40
2-7 - Long Tall Sally - 2:07
2-8 - I Call Your Name - 2:11
2-9 - Please Mr. Postman - 2:38
2-10 - I'll Get You - 2:09
2-11 - She Loves You - 2:28
Mono
2-12 - Roll Over Beethoven - 2:47
2-13 - Thank You Girl - 2:06
2-14 - You Really Got A Hold On Me - 3:04
2-15 - Devil In Her Heart - 2:28
2-16 - Money (That's What I Want) - 2:50
2-17 - You Can't Do That - 2:39
2-18 - Long Tall Sally - 2:06
2-19 - I Call Your Name - 2:14
2-20 - Please Mr. Postman - 2:37
2-21 - I'll Get You - 2:09
2-22 - She Loves You - 2:23

Something New
Stereo
3-1 - I'll Cry Instead - 1:48
3-2 - Things We Said Today - 3:28
3-3 - Any Time At All - 3:14
3-4 - When I Get Home - 2:19
3-5 - Slow Down - 2:57
3-6 - Matchbox - 2:00
3-7 - Tell Me Why - 2:11
3-8 - And I Love Her - 2:32
3-9 - I'm Happy Just To Dance With You - 1:58
3-10 - If I Fell - 2:22
3-11 - Komm, Gib Mir Deine Hand (I Want To Hold Your 
Hand) - 2:31
Mono
3-12 - I'll Cry Instead - 2:09
3-13 - Things We Said Today - 2:38
3-14 - Any Time At All - 2:14
3-15 - When I Get Home - 2:18
3-16 - Slow Down - 2:57
3-17 - Matchbox - 2:01
3-18 - Tell Me Why - 2:09
3-19 - And I Love Her - 2:31
3-20 - I'm Happy Just To Dance With You - 1:59
3-21 - If I Fell - 2:22
3-22 - Komm, Gib Mir Deine Hand (I Want To Hold Your 
Hand) - 2:29

Beatles '65
Stereo
4-1 - No Reply - 2:18
4-2 - I'm A Loser - 2:32
4-3 - Baby's In Black - 2:08
4-4 - Rock And Roll Music - 2:34
4-5 - I'll Follow The Sun - 1:51
4-6 - Mr. Moonlight - 2:43
4-7 - Honey Don't - 3:00
4-8 - I'll Be Back - 2:24
4-9 - She's A Woman - 3:01
4-10 - I Feel Fine - 2:23
4-11 - Everybody's Trying To Be My Baby - 2:31
Mono
4-12 - No Reply - 2:17
4-13 - I'm A Loser - 2:33
4-14 - Baby's In Black - 2:08
4-15 - Rock And Roll Music - 2:34
4-16 - I'll Follow The Sun - 1:50
4-17 - Mr. Moonlight - 2:39
4-18 - Honey Don't - 2:59
4-19 - I'll Be Back - 2:24
4-20 - She's A Woman - 3:01
4-21 - I Feel Fine - 2:23
4-22 - Everybody's Trying To Be My Baby - 2:27

EAC-Log, CUE-Sheed & NFO:

Click to open spoiler
Exact Audio Copy V1.0 beta 3 from 29. August 2011

EAC extraction logfile from 12. October 2013, 13:37

The Beatles / The Capitol Albums Vol. 1 Meet The Beatles! (Disc 1)

Used drive : PLEXTOR DVDR PX-891SA Adapter: 1 ID: 0

Read mode : Secure
Utilize accurate stream : Yes
Defeat audio cache : Yes
Make use of C2 pointers : No

Read offset correction : 6
Overread into Lead-In and Lead-Out : No
Fill up missing offset samples with silence : Yes
Delete leading and trailing silent blocks : No
Null samples used in CRC calculations : Yes
Used interface : Native Win32 interface for Win NT & 2000

Used output format : User Defined Encoder
Selected bitrate : 1024 kBit/s
Quality : High
Add ID3 tag : No
Command line compressor : C:\Program Files\Exact Audio Copy\Flac\flac.exe
Additional command line options : -V -8 -T “Genre=%genre%” -T “Artist=%artist%” -T “Title=%title%” -T “Album=%albumtitle%” -T “Date=%year%” -T “Tracknumber=%tracknr%” -T “Comment=%comment%” %source%

TOC of the extracted CD

Track | Start | Length | Start sector | End sector
———————————————————
1 | 0:00.00 | 2:25.60 | 0 | 10934
2 | 2:25.60 | 2:55.16 | 10935 | 24075
3 | 5:21.01 | 2:15.30 | 24076 | 34230
4 | 7:36.31 | 2:13.52 | 34231 | 44257
5 | 9:50.08 | 2:04.07 | 44258 | 53564
6 | 11:54.15 | 2:09.74 | 53565 | 63313
7 | 14:04.14 | 2:29.34 | 63314 | 74522
8 | 16:33.48 | 1:47.65 | 74523 | 82612
9 | 18:21.38 | 2:15.32 | 82613 | 92769
10 | 20:36.70 | 2:33.21 | 92770 | 104265
11 | 23:10.16 | 2:00.74 | 104266 | 113339
12 | 25:11.15 | 2:11.53 | 113340 | 123217
13 | 27:22.68 | 2:27.09 | 123218 | 134251
14 | 29:50.02 | 2:54.54 | 134252 | 147355
15 | 32:44.56 | 2:15.36 | 147356 | 157516
16 | 35:00.17 | 2:13.56 | 157517 | 167547
17 | 37:13.73 | 2:04.09 | 167548 | 176856
18 | 39:18.07 | 2:09.00 | 176857 | 186531
19 | 41:27.07 | 2:29.30 | 186532 | 197736
20 | 43:56.37 | 1:47.63 | 197737 | 205824
21 | 45:44.25 | 2:15.35 | 205825 | 215984
22 | 47:59.60 | 2:33.17 | 215985 | 227476
23 | 50:33.02 | 2:01.06 | 227477 | 236557
24 | 52:34.08 | 2:04.43 | 236558 | 245900

Range status and errors

Selected range

Filename I:\dafnaplus\The Capitol Albums Vol. 1\Meet The Beatles! (Disc 1)\The Beatles – The Capitol Albums Vol. 1 Meet The Beatles! (Disc 1).wav

Peak level 98.6 %
Extraction speed 7.8 X
Range quality 100.0 %
Test CRC D7D80879
Copy CRC D7D80879
Copy OK

No errors occurred

AccurateRip summary

Track 1 accurately ripped (confidence 44) [F3B21C61] (AR v2)
Track 2 cannot be verified as accurate (confidence 107) [4940683C], AccurateRip returned [88B51A51] (AR v2)
Track 3 accurately ripped (confidence 45) [1E246F33] (AR v2)
Track 4 accurately ripped (confidence 45) [FDE1B59C] (AR v2)
Track 5 accurately ripped (confidence 43) [C29B327C] (AR v2)
Track 6 accurately ripped (confidence 44) [2FF0EBFE] (AR v2)
Track 7 accurately ripped (confidence 42) [ACD94CD1] (AR v2)
Track 8 accurately ripped (confidence 43) [FCC342CB] (AR v2)
Track 9 accurately ripped (confidence 44) [8645CC94] (AR v2)
Track 10 accurately ripped (confidence 43) [9459EA29] (AR v2)
Track 11 accurately ripped (confidence 44) [3797A222] (AR v2)
Track 12 accurately ripped (confidence 44) [0EB94B65] (AR v2)
Track 13 accurately ripped (confidence 42) [D5AD8BA3] (AR v2)
Track 14 accurately ripped (confidence 42) [BC867B9D] (AR v2)
Track 15 accurately ripped (confidence 41) [BDE38704] (AR v2)
Track 16 accurately ripped (confidence 39) [545B29E6] (AR v2)
Track 17 accurately ripped (confidence 39) [899EEBD1] (AR v2)
Track 18 accurately ripped (confidence 40) [30E4901B] (AR v2)
Track 19 accurately ripped (confidence 41) [0EBDC266] (AR v2)
Track 20 accurately ripped (confidence 40) [AD6FD63E] (AR v2)
Track 21 accurately ripped (confidence 40) [10F68421] (AR v2)
Track 22 accurately ripped (confidence 40) [374E91AE] (AR v2)
Track 23 accurately ripped (confidence 39) [860FD464] (AR v2)
Track 24 accurately ripped (confidence 40) [8B478924] (AR v2)

23 track(s) accurately ripped
1 track(s) could not be verified as accurate

Some tracks could not be verified as accurate

End of status report

==== Log checksum 7FFFBCFDDB267C7995FB73EBD49637AE369E75674BD3C6E35C46789E21C4D2E4 ====

Exact Audio Copy V1.0 beta 3 from 29. August 2011

EAC extraction logfile from 12. October 2013, 14:22

The Beatles / The Capitol Albums Vol. 1 The Beatles’ Second Album (Disc 2)

Used drive : PLEXTOR DVDR PX-891SA Adapter: 1 ID: 0

Read mode : Secure
Utilize accurate stream : Yes
Defeat audio cache : Yes
Make use of C2 pointers : No

Read offset correction : 6
Overread into Lead-In and Lead-Out : No
Fill up missing offset samples with silence : Yes
Delete leading and trailing silent blocks : No
Null samples used in CRC calculations : Yes
Used interface : Native Win32 interface for Win NT & 2000

Used output format : User Defined Encoder
Selected bitrate : 1024 kBit/s
Quality : High
Add ID3 tag : No
Command line compressor : C:\Program Files\Exact Audio Copy\Flac\flac.exe
Additional command line options : -V -8 -T “Genre=%genre%” -T “Artist=%artist%” -T “Title=%title%” -T “Album=%albumtitle%” -T “Date=%year%” -T “Tracknumber=%tracknr%” -T “Comment=%comment%” %source%

TOC of the extracted CD

Track | Start | Length | Start sector | End sector
———————————————————
1 | 0:00.00 | 2:49.33 | 0 | 12707
2 | 2:49.33 | 2:07.00 | 12708 | 22232
3 | 4:56.33 | 3:05.23 | 22233 | 36130
4 | 8:01.56 | 2:30.08 | 36131 | 47388
5 | 10:31.64 | 2:53.17 | 47389 | 60380
6 | 13:25.06 | 2:40.43 | 60381 | 72423
7 | 16:05.49 | 2:07.31 | 72424 | 81979
8 | 18:13.05 | 2:11.39 | 81980 | 91843
9 | 20:24.44 | 2:38.29 | 91844 | 103722
10 | 23:02.73 | 2:09.51 | 103723 | 113448
11 | 25:12.49 | 2:28.61 | 113449 | 124609
12 | 27:41.35 | 2:47.36 | 124610 | 137170
13 | 30:28.71 | 2:06.08 | 137171 | 146628
14 | 32:35.04 | 3:04.43 | 146629 | 160471
15 | 35:39.47 | 2:28.30 | 160472 | 171601
16 | 38:08.02 | 2:50.35 | 171602 | 184386
17 | 40:58.37 | 2:39.31 | 184387 | 196342
18 | 43:37.68 | 2:06.19 | 196343 | 205811
19 | 45:44.12 | 2:14.45 | 205812 | 215906
20 | 47:58.57 | 2:37.34 | 215907 | 227715
21 | 50:36.16 | 2:09.03 | 227716 | 237393
22 | 52:45.19 | 2:21.23 | 237394 | 247991

Range status and errors

Selected range

Filename I:\dafnaplus\The Capitol Albums Vol. 1\The Beatles’ Second Album (Disc 2)\The Beatles – The Capitol Albums Vol. 1 The Beatles’ Second Album (Disc 2).wav

Peak level 98.6 %
Extraction speed 7.8 X
Range quality 100.0 %
Test CRC E5321819
Copy CRC E5321819
Copy OK

No errors occurred

AccurateRip summary

Track 1 accurately ripped (confidence 43) [272C058D] (AR v2)
Track 2 accurately ripped (confidence 43) [FB9BBD86] (AR v2)
Track 3 accurately ripped (confidence 43) [D5EE1BA8] (AR v2)
Track 4 accurately ripped (confidence 42) [67CC8A09] (AR v2)
Track 5 accurately ripped (confidence 43) [6F9449A2] (AR v2)
Track 6 accurately ripped (confidence 43) [AD2C83AF] (AR v2)
Track 7 accurately ripped (confidence 44) [66993873] (AR v2)
Track 8 accurately ripped (confidence 44) [A01EACBE] (AR v2)
Track 9 accurately ripped (confidence 43) [4FB50383] (AR v2)
Track 10 accurately ripped (confidence 43) [73497C60] (AR v2)
Track 11 accurately ripped (confidence 44) [873DD422] (AR v2)
Track 12 accurately ripped (confidence 38) [9AE73F69] (AR v2)
Track 13 accurately ripped (confidence 40) [85AC2396] (AR v2)
Track 14 accurately ripped (confidence 40) [2A41A776] (AR v2)
Track 15 accurately ripped (confidence 39) [3BCEDE76] (AR v2)
Track 16 accurately ripped (confidence 41) [2178FE09] (AR v2)
Track 17 accurately ripped (confidence 41) [79FD2B4F] (AR v2)
Track 18 accurately ripped (confidence 40) [C638BE20] (AR v2)
Track 19 accurately ripped (confidence 41) [84F9C1E2] (AR v2)
Track 20 accurately ripped (confidence 39) [E1BD3184] (AR v2)
Track 21 accurately ripped (confidence 40) [812756AE] (AR v2)
Track 22 accurately ripped (confidence 40) [603816C1] (AR v2)

All tracks accurately ripped

End of status report

==== Log checksum C637871F5FB51863FC52F71B0635018AAAAD135D161A460BFD114C88BA2DBE19 ====

Exact Audio Copy V1.0 beta 3 from 29. August 2011

EAC extraction logfile from 12. October 2013, 14:48

The Beatles / The Capitol Albums Vol. 1 Something New (Disc 3)

Used drive : PLEXTOR DVDR PX-891SA Adapter: 1 ID: 0

Read mode : Secure
Utilize accurate stream : Yes
Defeat audio cache : Yes
Make use of C2 pointers : No

Read offset correction : 6
Overread into Lead-In and Lead-Out : No
Fill up missing offset samples with silence : Yes
Delete leading and trailing silent blocks : No
Null samples used in CRC calculations : Yes
Used interface : Native Win32 interface for Win NT & 2000

Used output format : User Defined Encoder
Selected bitrate : 1024 kBit/s
Quality : High
Add ID3 tag : No
Command line compressor : C:\Program Files\Exact Audio Copy\Flac\flac.exe
Additional command line options : -V -8 -T “Genre=%genre%” -T “Artist=%artist%” -T “Title=%title%” -T “Album=%albumtitle%” -T “Date=%year%” -T “Tracknumber=%tracknr%” -T “Comment=%comment%” %source%

TOC of the extracted CD

Track | Start | Length | Start sector | End sector
———————————————————
1 | 0:00.00 | 1:48.26 | 0 | 8125
2 | 1:48.26 | 2:38.19 | 8126 | 19994
3 | 4:26.45 | 2:14.08 | 19995 | 30052
4 | 6:40.53 | 2:19.26 | 30053 | 40503
5 | 9:00.04 | 2:57.02 | 40504 | 53780
6 | 11:57.06 | 2:00.64 | 53781 | 62844
7 | 13:57.70 | 2:11.03 | 62845 | 72672
8 | 16:08.73 | 2:32.27 | 72673 | 84099
9 | 18:41.25 | 1:58.03 | 84100 | 92952
10 | 20:39.28 | 2:22.08 | 92953 | 103610
11 | 23:01.36 | 2:31.71 | 103611 | 115006
12 | 25:33.32 | 2:09.04 | 115007 | 124685
13 | 27:42.36 | 2:38.50 | 124686 | 136585
14 | 30:21.11 | 2:14.10 | 136586 | 146645
15 | 32:35.21 | 2:18.46 | 146646 | 157041
16 | 34:53.67 | 2:57.40 | 157042 | 170356
17 | 37:51.32 | 2:01.22 | 170357 | 179453
18 | 39:52.54 | 2:09.41 | 179454 | 189169
19 | 42:02.20 | 2:31.51 | 189170 | 200545
20 | 44:33.71 | 1:59.10 | 200546 | 209480
21 | 46:33.06 | 2:22.10 | 209481 | 220140
22 | 48:55.16 | 2:27.07 | 220141 | 231172

Range status and errors

Selected range

Filename I:\dafnaplus\The Capitol Albums Vol. 1\Something New (Disc 3)\The Beatles – The Capitol Albums Vol. 1 Something New (Disc 3).wav

Peak level 98.8 %
Extraction speed 7.5 X
Range quality 99.9 %
Test CRC CD23FBE9
Copy CRC CD23FBE9
Copy OK

No errors occurred

AccurateRip summary

Track 1 accurately ripped (confidence 45) [4AD3B84C] (AR v2)
Track 2 accurately ripped (confidence 45) [62199C18] (AR v2)
Track 3 accurately ripped (confidence 43) [10A51F3E] (AR v2)
Track 4 accurately ripped (confidence 42) [8B1B0924] (AR v2)
Track 5 accurately ripped (confidence 45) [B8EDA1F8] (AR v2)
Track 6 accurately ripped (confidence 45) [8EF2F3C1] (AR v2)
Track 7 accurately ripped (confidence 43) [97B2EBBC] (AR v2)
Track 8 accurately ripped (confidence 43) [ACBDA7CF] (AR v2)
Track 9 accurately ripped (confidence 43) [600361CD] (AR v2)
Track 10 accurately ripped (confidence 43) [BDD1128C] (AR v2)
Track 11 accurately ripped (confidence 42) [75A61024] (AR v2)
Track 12 accurately ripped (confidence 41) [FCEB171E] (AR v2)
Track 13 accurately ripped (confidence 41) [C3C670C6] (AR v2)
Track 14 accurately ripped (confidence 42) [A2161FBF] (AR v2)
Track 15 accurately ripped (confidence 42) [4D189E02] (AR v2)
Track 16 accurately ripped (confidence 40) [1E90DE64] (AR v2)
Track 17 accurately ripped (confidence 42) [D5E949A4] (AR v2)
Track 18 accurately ripped (confidence 41) [93B56751] (AR v2)
Track 19 accurately ripped (confidence 41) [FEB122C4] (AR v2)
Track 20 accurately ripped (confidence 40) [80756655] (AR v2)
Track 21 accurately ripped (confidence 40) [9A3371AB] (AR v2)
Track 22 accurately ripped (confidence 40) [991845C5] (AR v2)

All tracks accurately ripped

End of status report

==== Log checksum 1F52E1000B556BE3E573FC3E444C29AF7609A6B58796ED0B8FFF44DD3315B72D ====

Exact Audio Copy V1.0 beta 3 from 29. August 2011

EAC extraction logfile from 12. October 2013, 15:11

The Beatles / The Capitol Albums Vol. 1 Beatles ’65 (Disc 4)

Used drive : PLEXTOR DVDR PX-891SA Adapter: 1 ID: 0

Read mode : Secure
Utilize accurate stream : Yes
Defeat audio cache : Yes
Make use of C2 pointers : No

Read offset correction : 6
Overread into Lead-In and Lead-Out : No
Fill up missing offset samples with silence : Yes
Delete leading and trailing silent blocks : No
Null samples used in CRC calculations : Yes
Used interface : Native Win32 interface for Win NT & 2000

Used output format : User Defined Encoder
Selected bitrate : 1024 kBit/s
Quality : High
Add ID3 tag : No
Command line compressor : C:\Program Files\Exact Audio Copy\Flac\flac.exe
Additional command line options : -V -8 -T “Genre=%genre%” -T “Artist=%artist%” -T “Title=%title%” -T “Album=%albumtitle%” -T “Date=%year%” -T “Tracknumber=%tracknr%” -T “Comment=%comment%” %source%

TOC of the extracted CD

Track | Start | Length | Start sector | End sector
———————————————————
1 | 0:00.00 | 2:18.64 | 0 | 10413
2 | 2:18.64 | 2:32.61 | 10414 | 21874
3 | 4:51.50 | 2:08.29 | 21875 | 31503
4 | 7:00.04 | 2:34.09 | 31504 | 43062
5 | 9:34.13 | 1:51.27 | 43063 | 51414
6 | 11:25.40 | 2:43.14 | 51415 | 63653
7 | 14:08.54 | 3:00.12 | 63654 | 77165
8 | 17:08.66 | 2:24.68 | 77166 | 88033
9 | 19:33.59 | 3:01.69 | 88034 | 101677
10 | 22:35.53 | 2:23.29 | 101678 | 112431
11 | 24:59.07 | 2:31.29 | 112432 | 123785
12 | 27:30.36 | 2:17.47 | 123786 | 134107
13 | 29:48.08 | 2:33.48 | 134108 | 145630
14 | 32:21.56 | 2:08.10 | 145631 | 155240
15 | 34:29.66 | 2:34.17 | 155241 | 166807
16 | 37:04.08 | 1:50.66 | 166808 | 175123
17 | 38:54.74 | 2:39.68 | 175124 | 187116
18 | 41:34.67 | 2:59.47 | 187117 | 200588
19 | 44:34.39 | 2:24.64 | 200589 | 211452
20 | 46:59.28 | 3:01.09 | 211453 | 225036
21 | 50:00.37 | 2:23.12 | 225037 | 235773
22 | 52:23.49 | 2:25.65 | 235774 | 246713

Range status and errors

Selected range

Filename I:\dafnaplus\The Capitol Albums Vol. 1\Beatles ’65 (Disc 4)\The Beatles – The Capitol Albums Vol. 1 Beatles ’65 (Disc 4).wav

Peak level 100.0 %
Extraction speed 7.8 X
Range quality 100.0 %
Test CRC 7A382C50
Copy CRC 7A382C50
Copy OK

No errors occurred

AccurateRip summary

Track 1 accurately ripped (confidence 42) [A2A90938] (AR v2)
Track 2 accurately ripped (confidence 42) [0A7E7CA1] (AR v2)
Track 3 accurately ripped (confidence 42) [00B999AF] (AR v2)
Track 4 accurately ripped (confidence 43) [9B515A38] (AR v2)
Track 5 accurately ripped (confidence 42) [D8F163C4] (AR v2)
Track 6 accurately ripped (confidence 43) [FFE31940] (AR v2)
Track 7 accurately ripped (confidence 43) [0770CF80] (AR v2)
Track 8 accurately ripped (confidence 44) [FFD67233] (AR v2)
Track 9 accurately ripped (confidence 43) [AC4BB986] (AR v2)
Track 10 accurately ripped (confidence 43) [54842414] (AR v2)
Track 11 accurately ripped (confidence 40) [334F603F] (AR v2)
Track 12 accurately ripped (confidence 40) [E03BDFC4] (AR v2)
Track 13 accurately ripped (confidence 39) [47C238C0] (AR v2)
Track 14 accurately ripped (confidence 38) [73255AF0] (AR v2)
Track 15 accurately ripped (confidence 40) [E41665E1] (AR v2)
Track 16 accurately ripped (confidence 38) [93CF3A4A] (AR v2)
Track 17 accurately ripped (confidence 40) [5D212F24] (AR v2)
Track 18 accurately ripped (confidence 39) [71D13E11] (AR v2)
Track 19 accurately ripped (confidence 39) [EC054F4A] (AR v2)
Track 20 accurately ripped (confidence 41) [931126B6] (AR v2)
Track 21 accurately ripped (confidence 41) [E0CF9ECA] (AR v2)
Track 22 accurately ripped (confidence 39) [88828C50] (AR v2)

All tracks accurately ripped

End of status report

==== Log checksum C05CE9AC9C1F1448A98264780446AEE1692FEF5AD9A6E86D65B42A1CA2CBA188 ====

REM GENRE Rock
REM DATE 2004
REM DISCID 590CCE18
REM COMMENT “ExactAudioCopy v1.0b3”
PERFORMER “The Beatles”
TITLE “The Capitol Albums Vol. 1 Meet The Beatles! (Disc 1)”
FILE “The Beatles – The Capitol Albums Vol. 1 Meet The Beatles! (Disc 1).flac” WAVE
TRACK 01 AUDIO
TITLE “I Want To Hold Your Hand ”
PERFORMER “The Beatles”
ISRC GBAYE0401890
INDEX 01 00:00:00
TRACK 02 AUDIO
TITLE “I Saw Her Standing There ”
PERFORMER “The Beatles”
ISRC GBAYE0401891
INDEX 01 02:25:60
TRACK 03 AUDIO
TITLE “This Boy”
PERFORMER “The Beatles”
ISRC GBAYE0401892
INDEX 01 05:21:01
TRACK 04 AUDIO
TITLE “It Won’t Be Long”
PERFORMER “The Beatles”
ISRC GBAYE0401893
INDEX 01 07:36:31
TRACK 05 AUDIO
TITLE “All I’ve Got To Do”
PERFORMER “The Beatles”
ISRC GBAYE0401894
INDEX 01 09:50:08
TRACK 06 AUDIO
TITLE “All My Loving ”
PERFORMER “The Beatles”
ISRC GBAYE0401895
INDEX 01 11:54:15
TRACK 07 AUDIO
TITLE “Don’t Bother Me ”
PERFORMER “The Beatles”
ISRC GBAYE0401896
INDEX 00 14:01:14
INDEX 01 14:04:14
TRACK 08 AUDIO
TITLE “Little Child ”
PERFORMER “The Beatles”
ISRC GBAYE0401897
INDEX 01 16:33:48
TRACK 09 AUDIO
TITLE “Till There Was You ”
PERFORMER “The Beatles”
ISRC GBAYE0401898
INDEX 01 18:21:38
TRACK 10 AUDIO
TITLE “Hold Me Tight ”
PERFORMER “The Beatles”
ISRC GBAYE0401899
INDEX 01 20:36:70
TRACK 11 AUDIO
TITLE “I Wanna Be Your Man ”
PERFORMER “The Beatles”
ISRC GBAYE0401900
INDEX 01 23:10:16
TRACK 12 AUDIO
TITLE “Not A Second Time ”
PERFORMER “The Beatles”
ISRC GBAYE0401901
INDEX 01 25:11:15
TRACK 13 AUDIO
TITLE “I Want To Hold Your Hand (mono)”
PERFORMER “The Beatles”
ISRC GBAYE0401845
INDEX 00 27:16:68
INDEX 01 27:22:68
TRACK 14 AUDIO
TITLE “I Saw Her Standing There (mono)”
PERFORMER “The Beatles”
ISRC GBAYE0401846
INDEX 01 29:50:02
TRACK 15 AUDIO
TITLE “This Boy (mono)”
PERFORMER “The Beatles”
ISRC GBAYE0401847
INDEX 01 32:44:56
TRACK 16 AUDIO
TITLE “It Won’t Be Long (mono)”
PERFORMER “The Beatles”
ISRC GBAYE0401848
INDEX 01 35:00:17
TRACK 17 AUDIO
TITLE “All I’ve Got To Do (mono)”
PERFORMER “The Beatles”
ISRC GBAYE0401849
INDEX 01 37:13:73
TRACK 18 AUDIO
TITLE “All My Loving (mono)”
PERFORMER “The Beatles”
ISRC GBAYE0401850
INDEX 01 39:18:07
TRACK 19 AUDIO
TITLE “Don’t Bother Me (mono)”
PERFORMER “The Beatles”
ISRC GBAYE0401851
INDEX 00 41:24:01
INDEX 01 41:27:07
TRACK 20 AUDIO
TITLE “Little Child (mono)”
PERFORMER “The Beatles”
ISRC GBAYE0401852
INDEX 01 43:56:37
TRACK 21 AUDIO
TITLE “Till There Was You (mono)”
PERFORMER “The Beatles”
ISRC GBAYE0401853
INDEX 01 45:44:25
TRACK 22 AUDIO
TITLE “Hold Me Tight (mono)”
PERFORMER “The Beatles”
ISRC GBAYE0401854
INDEX 01 47:59:60
TRACK 23 AUDIO
TITLE “I Wanna Be Your Man (mono)”
PERFORMER “The Beatles”
ISRC GBAYE0401855
INDEX 01 50:33:02
TRACK 24 AUDIO
TITLE “Not A Second Time (mono)”
PERFORMER “The Beatles”
ISRC GBAYE0401856
INDEX 01 52:34:08

REM GENRE Pop/Rock*
REM DATE 2004
REM DISCID 3D0CEA16
REM COMMENT “ExactAudioCopy v1.0b3”
PERFORMER “The Beatles”
TITLE “The Capitol Albums Vol. 1 The Beatles’ Second Album (Disc 2) ”
FILE “The Beatles – The Capitol Albums Vol. 1 The Beatles’ Second Album (Disc 2).flac” WAVE
TRACK 01 AUDIO
TITLE “Roll Over Beethoven ”
PERFORMER “The Beatles”
ISRC GBAYE0401902
INDEX 01 00:00:00
TRACK 02 AUDIO
TITLE “Thank You Girl (stereo)”
PERFORMER “The Beatles”
ISRC GBAYE0401903
INDEX 01 02:49:33
TRACK 03 AUDIO
TITLE “You Really Got A Hold On Me ”
PERFORMER “The Beatles”
ISRC GBAYE0401904
INDEX 01 04:56:33
TRACK 04 AUDIO
TITLE “Devil In Her Heart ”
PERFORMER “The Beatles”
ISRC GBAYE0401905
INDEX 01 08:01:56
TRACK 05 AUDIO
TITLE “Money (stereo)”
PERFORMER “The Beatles”
ISRC GBAYE0401906
INDEX 01 10:31:64
TRACK 06 AUDIO
TITLE “You Can’t Do That ”
PERFORMER “The Beatles”
ISRC GBAYE0401907
INDEX 01 13:25:06
TRACK 07 AUDIO
TITLE “Long Tall Sally ”
PERFORMER “The Beatles”
ISRC GBAYE0401908
INDEX 00 16:02:49
INDEX 01 16:05:49
TRACK 08 AUDIO
TITLE “I Call Your Name ”
PERFORMER “The Beatles”
ISRC GBAYE0401909
INDEX 01 18:13:05
TRACK 09 AUDIO
TITLE “Please Mr. Postman ”
PERFORMER “The Beatles”
ISRC GBAYE0401910
INDEX 01 20:24:44
TRACK 10 AUDIO
TITLE “I’ll Get You ”
PERFORMER “The Beatles”
ISRC GBAYE0401911
INDEX 01 23:02:73
TRACK 11 AUDIO
TITLE “She Loves You ”
PERFORMER “The Beatles”
ISRC GBAYE0401912
INDEX 01 25:12:49
TRACK 12 AUDIO
TITLE “Roll Over Beethoven (mono)”
PERFORMER “The Beatles”
ISRC GBAYE0401857
INDEX 00 27:35:35
INDEX 01 27:41:35
TRACK 13 AUDIO
TITLE “Thank You Girl (mono)”
PERFORMER “The Beatles”
ISRC GBAYE0401858
INDEX 01 30:28:71
TRACK 14 AUDIO
TITLE “You Really Got A Hold On Me (mono)”
PERFORMER “The Beatles”
ISRC GBAYE0401859
INDEX 01 32:35:04
TRACK 15 AUDIO
TITLE “Devil In Her Heart (mono)”
PERFORMER “The Beatles”
ISRC GBAYE0401860
INDEX 01 35:39:47
TRACK 16 AUDIO
TITLE “Money (mono)”
PERFORMER “The Beatles”
ISRC GBAYE0401861
INDEX 01 38:08:02
TRACK 17 AUDIO
TITLE “You Can’t Do That (mono)”
PERFORMER “The Beatles”
ISRC GBAYE0401862
INDEX 01 40:58:37
TRACK 18 AUDIO
TITLE “Long Tall Sally (mono)”
PERFORMER “The Beatles”
ISRC GBAYE0401863
INDEX 00 43:34:68
INDEX 01 43:37:68
TRACK 19 AUDIO
TITLE “I Call Your Name (mono)”
PERFORMER “The Beatles”
ISRC GBAYE0401864
INDEX 01 45:44:12
TRACK 20 AUDIO
TITLE “Please Mr. Postman (mono)”
PERFORMER “The Beatles”
ISRC GBAYE0401865
INDEX 01 47:58:57
TRACK 21 AUDIO
TITLE “I’ll Get You (mono)”
PERFORMER “The Beatles”
ISRC GBAYE0401866
INDEX 01 50:36:16
TRACK 22 AUDIO
TITLE “She Loves You (mono)”
PERFORMER “The Beatles”
ISRC GBAYE0401867
INDEX 01 52:45:19

REM GENRE Rock
REM DATE 2004
REM DISCID 390C0A16
REM COMMENT “ExactAudioCopy v1.0b3”
PERFORMER “The Beatles”
TITLE “The Capitol Albums Vol. 1 Something New (Disc 3)”
FILE “The Beatles – The Capitol Albums Vol. 1 Something New (Disc 3).flac” WAVE
TRACK 01 AUDIO
TITLE “I’ll Cry Instead”
PERFORMER “The Beatles”
ISRC GBAYE0401913
INDEX 01 00:00:00
TRACK 02 AUDIO
TITLE “Things We Said Today”
PERFORMER “The Beatles”
ISRC GBAYE0401914
INDEX 01 01:48:26
TRACK 03 AUDIO
TITLE “Anytime At All”
PERFORMER “The Beatles”
ISRC GBAYE0401915
INDEX 01 04:26:45
TRACK 04 AUDIO
TITLE “When I Get Home”
PERFORMER “The Beatles”
ISRC GBAYE0401916
INDEX 01 06:40:53
TRACK 05 AUDIO
TITLE “Slow Down”
PERFORMER “The Beatles”
ISRC GBAYE0401917
INDEX 01 09:00:04
TRACK 06 AUDIO
TITLE “Matchbox”
PERFORMER “The Beatles”
ISRC GBAYE0401918
INDEX 01 11:57:06
TRACK 07 AUDIO
TITLE “Tell Me Why”
PERFORMER “The Beatles”
ISRC GBAYE0401919
INDEX 00 13:54:70
INDEX 01 13:57:70
TRACK 08 AUDIO
TITLE “And I Love Her”
PERFORMER “The Beatles”
ISRC GBAYE0401920
INDEX 01 16:08:73
TRACK 09 AUDIO
TITLE “I’m Happy Just To Dance With You”
PERFORMER “The Beatles”
ISRC GBAYE0401921
INDEX 01 18:41:25
TRACK 10 AUDIO
TITLE “If I Fell”
PERFORMER “The Beatles”
ISRC GBAYE0401922
INDEX 01 20:39:28
TRACK 11 AUDIO
TITLE “Komm, Gib Mir Deine Hand”
PERFORMER “The Beatles”
ISRC GBAYE0401923
INDEX 01 23:01:36
TRACK 12 AUDIO
TITLE “I’ll Cry Instead (mono)”
PERFORMER “The Beatles”
ISRC GBAYE0401868
INDEX 00 25:27:32
INDEX 01 25:33:32
TRACK 13 AUDIO
TITLE “Things We Said Today (mono)”
PERFORMER “The Beatles”
ISRC GBAYE0401869
INDEX 01 27:42:36
TRACK 14 AUDIO
TITLE “Anytime At All (mono)”
PERFORMER “The Beatles”
ISRC GBAYE0401870
INDEX 01 30:21:11
TRACK 15 AUDIO
TITLE “When I Get Home (mono)”
PERFORMER “The Beatles”
ISRC GBAYE0401871
INDEX 01 32:35:21
TRACK 16 AUDIO
TITLE “Slow Down (mono)”
PERFORMER “The Beatles”
ISRC GBAYE0401872
INDEX 01 34:53:67
TRACK 17 AUDIO
TITLE “Matchbox (mono)”
PERFORMER “The Beatles”
ISRC GBAYE0401873
INDEX 01 37:51:32
TRACK 18 AUDIO
TITLE “Tell Me Why (mono)”
PERFORMER “The Beatles”
ISRC GBAYE0401874
INDEX 00 39:49:54
INDEX 01 39:52:54
TRACK 19 AUDIO
TITLE “And I Love Her (mono)”
PERFORMER “The Beatles”
ISRC GBAYE0401875
INDEX 01 42:02:20
TRACK 20 AUDIO
TITLE “I’m Happy Just To Dance With You (mono)”
PERFORMER “The Beatles”
ISRC GBAYE0401876
INDEX 01 44:33:71
TRACK 21 AUDIO
TITLE “If I Fell (mono)”
PERFORMER “The Beatles”
ISRC GBAYE0401877
INDEX 01 46:33:06
TRACK 22 AUDIO
TITLE “Komm, Gib Mir Deine Hand (mono)”
PERFORMER “The Beatles”
ISRC GBAYE0401878
INDEX 01 48:55:16

REM GENRE Rock
REM DATE 2004
REM DISCID 180CD916
REM COMMENT “ExactAudioCopy v1.0b3”
PERFORMER “The Beatles”
TITLE “The Capitol Albums Vol. 1 Beatles ’65 (Disc 4)”
FILE “The Beatles – The Capitol Albums Vol. 1 Beatles ’65 (Disc 4).flac” WAVE
TRACK 01 AUDIO
TITLE “No Reply”
PERFORMER “The Beatles”
ISRC GBAYE0401924
INDEX 01 00:00:00
TRACK 02 AUDIO
TITLE “I’m A Loser”
PERFORMER “The Beatles”
ISRC GBAYE0401925
INDEX 01 02:18:64
TRACK 03 AUDIO
TITLE “Baby’s In Black”
PERFORMER “The Beatles”
ISRC GBAYE0401926
INDEX 01 04:51:50
TRACK 04 AUDIO
TITLE “Rock And Roll Music”
PERFORMER “The Beatles”
ISRC GBAYE0401927
INDEX 01 07:00:04
TRACK 05 AUDIO
TITLE “I’ll Follow The Sun”
PERFORMER “The Beatles”
ISRC GBAYE0401928
INDEX 01 09:34:13
TRACK 06 AUDIO
TITLE “Mr. Moonlight”
PERFORMER “The Beatles”
ISRC GBAYE0401929
INDEX 01 11:25:40
TRACK 07 AUDIO
TITLE “Honey Don’t”
PERFORMER “The Beatles”
ISRC GBAYE0401930
INDEX 00 14:05:54
INDEX 01 14:08:54
TRACK 08 AUDIO
TITLE “I’ll Be Back”
PERFORMER “The Beatles”
ISRC GBAYE0401931
INDEX 01 17:08:66
TRACK 09 AUDIO
TITLE “She’s A Woman”
PERFORMER “The Beatles”
ISRC GBAYE0401932
INDEX 01 19:33:59
TRACK 10 AUDIO
TITLE “I Feel Fine”
PERFORMER “The Beatles”
ISRC GBAYE0401933
INDEX 01 22:35:53
TRACK 11 AUDIO
TITLE “Everybody’s Trying To Be My Baby”
PERFORMER “The Beatles”
ISRC GBAYE0401934
INDEX 01 24:59:07
TRACK 12 AUDIO
TITLE “No Reply (mono)”
PERFORMER “The Beatles”
ISRC GBAYE0401879
INDEX 00 27:24:36
INDEX 01 27:30:36
TRACK 13 AUDIO
TITLE “I’m A Loser (mono)”
PERFORMER “The Beatles”
ISRC GBAYE0401880
INDEX 01 29:48:08
TRACK 14 AUDIO
TITLE “Baby’s In Black (mono)”
PERFORMER “The Beatles”
ISRC GBAYE0401881
INDEX 01 32:21:56
TRACK 15 AUDIO
TITLE “Rock And Roll Music (mono)”
PERFORMER “The Beatles”
ISRC GBAYE0401882
INDEX 01 34:29:66
TRACK 16 AUDIO
TITLE “I’ll Follow The Sun (mono)”
PERFORMER “The Beatles”
ISRC GBAYE0401883
INDEX 01 37:04:08
TRACK 17 AUDIO
TITLE “Mr. Moonlight (mono)”
PERFORMER “The Beatles”
ISRC GBAYE0401884
INDEX 01 38:54:74
TRACK 18 AUDIO
TITLE “Honey Don’t (mono)”
PERFORMER “The Beatles”
ISRC GBAYE0401885
INDEX 00 41:31:67
INDEX 01 41:34:67
TRACK 19 AUDIO
TITLE “I’ll Be Back (mono)”
PERFORMER “The Beatles”
ISRC GBAYE0401886
INDEX 01 44:34:39
TRACK 20 AUDIO
TITLE “She’s A Woman (mono)”
PERFORMER “The Beatles”
ISRC GBAYE0401887
INDEX 01 46:59:28
TRACK 21 AUDIO
TITLE “I Feel Fine (mono)”
PERFORMER “The Beatles”
ISRC GBAYE0401888
INDEX 01 50:00:37
TRACK 22 AUDIO
TITLE “Everybody’s Trying To Be My Baby (mono)”
PERFORMER “The Beatles”
ISRC GBAYE0401889
INDEX 01 52:23:49


Spread the Download

Leave a Reply

Your email address will not be published. Required fields are marked *

Enter the text from the image below
 

This site uses Akismet to reduce spam. Learn how your comment data is processed.