The Beatles – The Beatles




Artist: The Beatles
Year: 1987/1994
Genre: Rock
Notes: Discogs
Add. Notes:
Cover incl.: Yes
Encoder: FLAC
Bitrate: ~800 kBit/s (44.1 kHz/16 Bit/s)
Log & Cue incl.: Yes
Size: 955,48 MB
Password: “slam” (without ” “)


All Downloads/Hosters are compatible

Download 1
Turbobit.net
NitroFlare.com
KatFile.com
Rapidgator.net
Download 2
Turbobit.net
NitroFlare.com
KatFile.com
Rapidgator.net

Tracklist:

1-1 - Back In The U.S.S.R. - 2:43
1-2 - Dear Prudence - 3:57
1-3 - Glass Onion - 2:18
1-4 - Ob-La-Di, Ob-La-Da - 3:08
1-5 - Wild Honey Pie - 0:53
1-6 - The Continuing Story Of Bungalow Bill - 3:14
1-7 - While My Guitar Gently Weeps - 4:46
1-8 - Happiness Is A Warm Gun - 2:43
1-9 - Martha My Dear - 2:29
1-10 - I'm So Tired - 2:03
1-11 - Blackbird - 2:18
1-12 - Piggies - 2:05
1-13 - Rocky Raccoon - 3:33
1-14 - Don't Pass Me By - 3:50
1-15 - Why Don't We Do It In The Road? - 1:42
1-16 - I Will - 1:46
1-17 - Julia - 2:54

2-1 - Birthday - 2:43
2-2 - Yer Blues - 4:01
2-3 - Mother Nature's Son - 2:48
2-4 - Everybody's Got Something To Hide Except Me And 
My Monkey - 2:25
2-5 - Sexy Sadie - 3:15
2-6 - Helter Skelter - 4:30
2-7 - Long, Long, Long - 3:04
2-8 - Revolution 1 - 4:16
2-9 - Honey Pie - 2:41
2-10 - Savoy Truffle - 2:55
2-11 - Cry Baby Cry - 3:02
2-12 - Revolution 9 - 8:22
2-13 - Good Night - 3:12

EAC-Log, CUE-Sheed & NFO:

Click to open spoiler
Exact Audio Copy V1.3 from 2. September 2016

EAC extraction logfile from 26. October 2018, 19:48

The Beatles / The The Beatles (Disc 1) (CDS 7 46443 8)

Used drive : ASUS DRW-24D5MT Adapter: 1 ID: 0

Read mode : Secure
Utilize accurate stream : Yes
Defeat audio cache : Yes
Make use of C2 pointers : No

Read offset correction : 6
Overread into Lead-In and Lead-Out : No
Fill up missing offset samples with silence : Yes
Delete leading and trailing silent blocks : No
Null samples used in CRC calculations : Yes
Used interface : Native Win32 interface for Win NT & 2000

Used output format : User Defined Encoder
Selected bitrate : 768 kBit/s
Quality : High
Add ID3 tag : No
Command line compressor : C:\Program Files (x86)\Exact Audio Copy\Flac\flac.exe
Additional command line options : -V -8 -T “Genre=%genre%” -T “Artist=%artist%” -T “Title=%title%” -T “Album=%albumtitle%” -T “Date=%year%” -T “Tracknumber=%tracknr%” -T “Comment=%comment%” %source%

TOC of the extracted CD

Track | Start | Length | Start sector | End sector
———————————————————
1 | 0:00.32 | 2:43.08 | 32 | 12264
2 | 2:43.40 | 3:56.37 | 12265 | 30001
3 | 6:40.02 | 2:17.68 | 30002 | 40344
4 | 8:57.70 | 3:08.62 | 40345 | 54506
5 | 12:06.57 | 1:01.25 | 54507 | 59106
6 | 13:08.07 | 3:05.50 | 59107 | 73031
7 | 16:13.57 | 4:45.15 | 73032 | 94421
8 | 20:58.72 | 2:43.45 | 94422 | 106691
9 | 23:42.42 | 2:28.53 | 106692 | 117844
10 | 26:11.20 | 2:03.20 | 117845 | 127089
11 | 28:14.40 | 2:18.22 | 127090 | 137461
12 | 30:32.62 | 2:04.28 | 137462 | 146789
13 | 32:37.15 | 3:41.17 | 146790 | 163381
14 | 36:18.32 | 3:42.05 | 163382 | 180036
15 | 40:00.37 | 1:41.35 | 180037 | 187646
16 | 41:41.72 | 1:46.03 | 187647 | 195599
17 | 43:28.00 | 2:54.15 | 195600 | 208664

Range status and errors

Selected range

Filename I:\dafnaplus\The Beatles\Disc 1\The Beatles – The The Beatles (Disc 1) (CDS 7 46443 8).wav

Peak level 97.3 %
Extraction speed 1.6 X
Range quality 100.0 %
Test CRC C3032E6E
Copy CRC C3032E6E
Copy OK

No errors occurred

AccurateRip summary

Track 1 accurately ripped (confidence 61) [B75D5BF3] (AR v2)
Track 2 accurately ripped (confidence 62) [B6C49F13] (AR v2)
Track 3 accurately ripped (confidence 62) [B69FF0C6] (AR v2)
Track 4 accurately ripped (confidence 62) [A299B21F] (AR v2)
Track 5 accurately ripped (confidence 62) [76021B0D] (AR v2)
Track 6 accurately ripped (confidence 62) [2CBA83A4] (AR v2)
Track 7 accurately ripped (confidence 62) [197C6906] (AR v2)
Track 8 accurately ripped (confidence 61) [2996E5F1] (AR v2)
Track 9 accurately ripped (confidence 62) [054F2DEA] (AR v2)
Track 10 accurately ripped (confidence 62) [6C7975CB] (AR v2)
Track 11 accurately ripped (confidence 62) [F4013737] (AR v2)
Track 12 accurately ripped (confidence 61) [73C2735C] (AR v2)
Track 13 accurately ripped (confidence 62) [4AE1BCAE] (AR v2)
Track 14 accurately ripped (confidence 62) [ED9BC168] (AR v2)
Track 15 accurately ripped (confidence 62) [040678F8] (AR v2)
Track 16 accurately ripped (confidence 62) [B7487CE6] (AR v2)
Track 17 accurately ripped (confidence 62) [48496185] (AR v2)

All tracks accurately ripped

End of status report

—- CUETools DB Plugin V2.1.6

[CTDB TOCID: 8PL20mjbYGz9WxYcUSjcyUF6O44-] found
Submit result: 8PL20mjbYGz9WxYcUSjcyUF6O44- has been confirmed
Track | CTDB Status
1 | (1257/1267) Accurately ripped
2 | (1250/1267) Accurately ripped
3 | (1260/1267) Accurately ripped
4 | (1254/1267) Accurately ripped
5 | (1259/1267) Accurately ripped
6 | (1248/1267) Accurately ripped
7 | (1256/1267) Accurately ripped
8 | (1248/1267) Accurately ripped
9 | (1259/1267) Accurately ripped
10 | (1254/1267) Accurately ripped
11 | (1250/1267) Accurately ripped
12 | (1253/1267) Accurately ripped
13 | (1247/1267) Accurately ripped
14 | (1245/1267) Accurately ripped
15 | (1250/1267) Accurately ripped
16 | (1248/1267) Accurately ripped
17 | (1243/1267) Accurately ripped

==== Log checksum 9521F2EB08D4E4ADE9089ADDA4022F1A395B67F890ADB2E96B9C38DE4BEDB3F3 ====

Exact Audio Copy V1.3 from 2. September 2016

EAC extraction logfile from 26. October 2018, 20:54

The Beatles / The Beatles (Disc 2) (CDS 7 46443 8)

Used drive : ASUS DRW-24D5MT Adapter: 1 ID: 0

Read mode : Secure
Utilize accurate stream : Yes
Defeat audio cache : Yes
Make use of C2 pointers : No

Read offset correction : 6
Overread into Lead-In and Lead-Out : No
Fill up missing offset samples with silence : Yes
Delete leading and trailing silent blocks : No
Null samples used in CRC calculations : Yes
Used interface : Native Win32 interface for Win NT & 2000

Used output format : User Defined Encoder
Selected bitrate : 768 kBit/s
Quality : High
Add ID3 tag : No
Command line compressor : C:\Program Files (x86)\Exact Audio Copy\Flac\flac.exe
Additional command line options : -V -8 -T “Genre=%genre%” -T “Artist=%artist%” -T “Title=%title%” -T “Album=%albumtitle%” -T “Date=%year%” -T “Tracknumber=%tracknr%” -T “Comment=%comment%” %source%

TOC of the extracted CD

Track | Start | Length | Start sector | End sector
———————————————————
1 | 0:00.32 | 2:42.63 | 32 | 12244
2 | 2:43.20 | 4:01.12 | 12245 | 30331
3 | 6:44.32 | 2:48.03 | 30332 | 42934
4 | 9:32.35 | 2:24.52 | 42935 | 53786
5 | 11:57.12 | 3:15.28 | 53787 | 68439
6 | 15:12.40 | 4:29.55 | 68440 | 88669
7 | 19:42.20 | 3:04.27 | 88670 | 102496
8 | 22:46.47 | 4:15.53 | 102497 | 121674
9 | 27:02.25 | 2:41.22 | 121675 | 133771
10 | 29:43.47 | 2:54.68 | 133772 | 146889
11 | 32:38.40 | 3:10.72 | 146890 | 161211
12 | 35:49.37 | 8:13.08 | 161212 | 198194
13 | 44:02.45 | 3:11.60 | 198195 | 212579

Range status and errors

Selected range

Filename I:\dafnaplus\The Beatles\Disc 2\The Beatles – The Beatles (Disc 2) (CDS 7 46443 8).wav

Peak level 92.2 %
Extraction speed 1.6 X
Range quality 100.0 %
Test CRC 6B97CC69
Copy CRC 6B97CC69
Copy OK

No errors occurred

AccurateRip summary

Track 1 accurately ripped (confidence 74) [D59D8292] (AR v2)
Track 2 accurately ripped (confidence 74) [CBB18DAE] (AR v2)
Track 3 accurately ripped (confidence 74) [A41D1EC5] (AR v2)
Track 4 accurately ripped (confidence 74) [4CC2CDBC] (AR v2)
Track 5 accurately ripped (confidence 74) [1F4487AA] (AR v2)
Track 6 accurately ripped (confidence 74) [613D1159] (AR v2)
Track 7 accurately ripped (confidence 74) [64661232] (AR v2)
Track 8 accurately ripped (confidence 74) [6ACA701E] (AR v2)
Track 9 accurately ripped (confidence 74) [F4CE0F76] (AR v2)
Track 10 accurately ripped (confidence 74) [B870F2AF] (AR v2)
Track 11 accurately ripped (confidence 74) [7DF366E3] (AR v2)
Track 12 accurately ripped (confidence 73) [E5984E7C] (AR v2)
Track 13 accurately ripped (confidence 74) [7311809E] (AR v2)

All tracks accurately ripped

End of status report

—- CUETools DB Plugin V2.1.6

[CTDB TOCID: UzMBBzfOKJSF3sVC33cGquceZ4s-] found
Submit result: UzMBBzfOKJSF3sVC33cGquceZ4s- has been confirmed
Track | CTDB Status
1 | (1145/1155) Accurately ripped
2 | (1143/1155) Accurately ripped
3 | (1144/1155) Accurately ripped
4 | (1147/1155) Accurately ripped
5 | (1146/1155) Accurately ripped
6 | (1145/1155) Accurately ripped
7 | (1144/1155) Accurately ripped
8 | (1141/1155) Accurately ripped
9 | (1143/1155) Accurately ripped
10 | (1146/1155) Accurately ripped
11 | (1145/1155) Accurately ripped
12 | (1128/1155) Accurately ripped
13 | (1133/1155) Accurately ripped

==== Log checksum 7051360CCB270804C969F3243FCA0282B2E1BE99D8AAB184D8EBD492E5D33D86 ====

REM GENRE Rock
REM DATE 1987
REM DISCID E30ADE11
REM COMMENT “ExactAudioCopy v1.3”
PERFORMER “The Beatles”
TITLE “The The Beatles (Disc 1) (CDS 7 46443 8)”
REM COMPOSER “”
FILE “The Beatles – The The Beatles (Disc 1) (CDS 7 46443 8).flac” WAVE
TRACK 01 AUDIO
TITLE “Back In The U.S.S.R.”
PERFORMER “The Beatles”
REM COMPOSER “”
INDEX 00 00:00:00
INDEX 01 00:00:32
TRACK 02 AUDIO
TITLE “Dear Prudence”
PERFORMER “The Beatles”
REM COMPOSER “”
INDEX 00 02:43:37
INDEX 01 02:43:40
TRACK 03 AUDIO
TITLE “Glass Onion”
PERFORMER “The Beatles”
REM COMPOSER “”
INDEX 00 06:39:32
INDEX 01 06:40:02
TRACK 04 AUDIO
TITLE “Ob-La-Di, Ob-La-Da”
PERFORMER “The Beatles”
REM COMPOSER “”
INDEX 00 08:57:67
INDEX 01 08:57:70
TRACK 05 AUDIO
TITLE “Wild Honey Pie”
PERFORMER “The Beatles”
REM COMPOSER “”
INDEX 00 12:06:54
INDEX 01 12:06:57
TRACK 06 AUDIO
TITLE “The Continuing Story Of Bungalow Bill”
PERFORMER “The Beatles”
REM COMPOSER “”
INDEX 00 13:08:05
INDEX 01 13:08:07
TRACK 07 AUDIO
TITLE “While My Guitar Gently Weeps”
PERFORMER “The Beatles”
REM COMPOSER “”
INDEX 00 16:13:55
INDEX 01 16:13:57
TRACK 08 AUDIO
TITLE “Happiness Is A Warm Gun”
PERFORMER “The Beatles”
REM COMPOSER “”
INDEX 00 20:58:70
INDEX 01 20:58:72
TRACK 09 AUDIO
TITLE “Martha My Dear”
PERFORMER “The Beatles”
REM COMPOSER “”
INDEX 00 23:42:12
INDEX 01 23:42:42
TRACK 10 AUDIO
TITLE “I’m So Tired”
PERFORMER “The Beatles”
REM COMPOSER “”
INDEX 00 26:11:17
INDEX 01 26:11:20
TRACK 11 AUDIO
TITLE “Blackbird”
PERFORMER “The Beatles”
REM COMPOSER “”
INDEX 00 28:14:37
INDEX 01 28:14:40
TRACK 12 AUDIO
TITLE “Piggies”
PERFORMER “The Beatles”
REM COMPOSER “”
INDEX 00 30:32:60
INDEX 01 30:32:62
TRACK 13 AUDIO
TITLE “Rocky Raccoon”
PERFORMER “The Beatles”
REM COMPOSER “”
INDEX 00 32:37:12
INDEX 01 32:37:15
TRACK 14 AUDIO
TITLE “Don’t Pass Me By”
PERFORMER “The Beatles”
REM COMPOSER “”
INDEX 00 36:18:30
INDEX 01 36:18:32
TRACK 15 AUDIO
TITLE “Why Don’t We Do It In The Road?”
PERFORMER “The Beatles”
REM COMPOSER “”
INDEX 00 40:00:35
INDEX 01 40:00:37
TRACK 16 AUDIO
TITLE “I Will”
PERFORMER “The Beatles”
REM COMPOSER “”
INDEX 00 41:41:40
INDEX 01 41:41:72
TRACK 17 AUDIO
TITLE “Julia”
PERFORMER “The Beatles”
REM COMPOSER “”
INDEX 00 43:27:55
INDEX 01 43:28:00

REM GENRE Rock
REM DATE 1987
REM DISCID B20B120D
REM COMMENT “ExactAudioCopy v1.3”
PERFORMER “The Beatles”
TITLE “The Beatles (Disc 2) (CDS 7 46443 8)”
REM COMPOSER “”
FILE “The Beatles – The Beatles (Disc 2) (CDS 7 46443 8).flac” WAVE
TRACK 01 AUDIO
TITLE “Birthday”
PERFORMER “The Beatles”
REM COMPOSER “”
INDEX 00 00:00:00
INDEX 01 00:00:32
TRACK 02 AUDIO
TITLE “Yer Blues”
PERFORMER “The Beatles”
REM COMPOSER “”
INDEX 00 02:43:17
INDEX 01 02:43:20
TRACK 03 AUDIO
TITLE “Mother Nature’s Son”
PERFORMER “The Beatles”
REM COMPOSER “”
INDEX 00 06:44:10
INDEX 01 06:44:32
TRACK 04 AUDIO
TITLE “Everybody’s Got Something To Hide Except Me And My Monkey”
PERFORMER “The Beatles”
REM COMPOSER “”
INDEX 00 09:32:15
INDEX 01 09:32:35
TRACK 05 AUDIO
TITLE “Sexy Sadie”
PERFORMER “The Beatles”
REM COMPOSER “”
INDEX 00 11:57:10
INDEX 01 11:57:12
TRACK 06 AUDIO
TITLE “Helter Skelter”
PERFORMER “The Beatles”
REM COMPOSER “”
INDEX 00 15:12:37
INDEX 01 15:12:40
TRACK 07 AUDIO
TITLE “Long, Long, Long”
PERFORMER “The Beatles”
REM COMPOSER “”
INDEX 00 19:42:17
INDEX 01 19:42:20
TRACK 08 AUDIO
TITLE “Revolution 1”
PERFORMER “The Beatles”
REM COMPOSER “”
INDEX 00 22:46:17
INDEX 01 22:46:47
TRACK 09 AUDIO
TITLE “Honey Pie”
PERFORMER “The Beatles”
REM COMPOSER “”
INDEX 00 27:02:00
INDEX 01 27:02:25
TRACK 10 AUDIO
TITLE “Savoy Truffle”
PERFORMER “The Beatles”
REM COMPOSER “”
INDEX 00 29:43:20
INDEX 01 29:43:47
TRACK 11 AUDIO
TITLE “Cry Baby Cry”
PERFORMER “The Beatles”
REM COMPOSER “”
INDEX 00 32:37:52
INDEX 01 32:38:40
TRACK 12 AUDIO
TITLE “Revolution 9”
PERFORMER “The Beatles”
REM COMPOSER “”
INDEX 00 35:49:35
INDEX 01 35:49:37
TRACK 13 AUDIO
TITLE “Good Night”
PERFORMER “The Beatles”
REM COMPOSER “”
INDEX 00 44:02:27
INDEX 01 44:02:45


Leave a Reply

Your email address will not be published. Required fields are marked *

Enter the text from the image below
 

This site uses Akismet to reduce spam. Learn how your comment data is processed.