The Beatles – The Beatles’ Second Album (Japanese Edition)




Artist: The Beatles
Year: 2014
Genre: Rock
Notes: Discogs
Add. Notes: Japanese Edition
Cover incl.: Yes
Encoder: FLAC
Bitrate: ~700 kBit/s (44.1 kHz/16 Bit/s)
Log & Cue incl.: Yes
Size: 119,87 MB
Password: “slam” (without ” “)


All Downloads/Hosters are compatible

Download 1
Turbobit.net
KatFile.com
Rapidgator.net
Download 2
Turbobit.net
KatFile.com
Rapidgator.net

Tracklist:

1 - Can't Buy Me Love 
2 - Do You Want To Know A Secret
3 - Thank You Girl 
4 - A Taste Of Honey 
5 - It Won't Be Long  
6 - I Wanna Be Your Man 
7 - There's A Place 
8 - Roll Over Beethoven 
9 - Misery 
10 - Boys  
11 - Devil In Her Heart 
12 - Not A Second Time  
13 - Money 
14 - Till There Was You

EAC-Log, CUE-Sheed & NFO:

Click to open spoiler
Exact Audio Copy V1.0 beta 3 from 29. August 2011

EAC extraction logfile from 16. August 2014, 8:55

The Beatles / The Beatles’ Second Album (UICY-76430)

Used drive : PLEXTOR DVDR PX-891SA Adapter: 3 ID: 0

Read mode : Secure
Utilize accurate stream : Yes
Defeat audio cache : Yes
Make use of C2 pointers : No

Read offset correction : 6
Overread into Lead-In and Lead-Out : No
Fill up missing offset samples with silence : Yes
Delete leading and trailing silent blocks : No
Null samples used in CRC calculations : Yes
Used interface : Native Win32 interface for Win NT & 2000

Used output format : User Defined Encoder
Selected bitrate : 1024 kBit/s
Quality : High
Add ID3 tag : No
Command line compressor : C:\Program Files\Exact Audio Copy\Flac\flac.exe
Additional command line options : -V -8 -T “Genre=%genre%” -T “Artist=%artist%” -T “Title=%title%” -T “Album=%albumtitle%” -T “Date=%year%” -T “Tracknumber=%tracknr%” -T “Comment=%comment%” %source%

TOC of the extracted CD

Track | Start | Length | Start sector | End sector
———————————————————
1 | 0:00.00 | 2:17.60 | 0 | 10334
2 | 2:17.60 | 2:01.17 | 10335 | 19426
3 | 4:19.02 | 2:03.54 | 19427 | 28705
4 | 6:22.56 | 2:06.27 | 28706 | 38182
5 | 8:29.08 | 2:14.68 | 38183 | 48300
6 | 10:44.01 | 2:00.40 | 48301 | 57340
7 | 12:44.41 | 1:54.03 | 57341 | 65893
8 | 14:38.44 | 2:49.09 | 65894 | 78577
9 | 17:27.53 | 1:52.54 | 78578 | 87031
10 | 19:20.32 | 2:29.30 | 87032 | 98236
11 | 21:49.62 | 2:29.71 | 98237 | 109482
12 | 24:19.58 | 2:12.27 | 109483 | 119409
13 | 26:32.10 | 2:46.73 | 119410 | 131932
14 | 29:19.08 | 2:21.22 | 131933 | 142529

Range status and errors

Selected range

Filename H:\dafnaplus\The Japan Box\2. The Beatles’ Second Album\The Beatles – The Beatles’ Second Album (UICY-76430).wav

Peak level 98.8 %
Extraction speed 7.6 X
Range quality 100.0 %
Test CRC E3919E95
Copy CRC E3919E95
Copy OK

No errors occurred

AccurateRip summary

Track 1 accurately ripped (confidence 2) [169FCDD4] (AR v2)
Track 2 accurately ripped (confidence 2) [BB0FDA91] (AR v2)
Track 3 accurately ripped (confidence 2) [8F454E6F] (AR v2)
Track 4 accurately ripped (confidence 2) [768E7C83] (AR v2)
Track 5 accurately ripped (confidence 2) [2E8D8119] (AR v2)
Track 6 accurately ripped (confidence 2) [6F4B4237] (AR v2)
Track 7 accurately ripped (confidence 2) [069A99BA] (AR v2)
Track 8 accurately ripped (confidence 2) [3C4EFE82] (AR v2)
Track 9 accurately ripped (confidence 2) [D4D76DB8] (AR v2)
Track 10 accurately ripped (confidence 2) [774C37E0] (AR v2)
Track 11 accurately ripped (confidence 2) [60342E65] (AR v2)
Track 12 accurately ripped (confidence 2) [A5BA8206] (AR v2)
Track 13 accurately ripped (confidence 2) [530957D9] (AR v2)
Track 14 accurately ripped (confidence 2) [1BA34112] (AR v2)

All tracks accurately ripped

End of status report

==== Log checksum 6A9166223F5CC224B92F414D13CD8FB2C021E626F91F5881C5462A0C45247C78 ====

REM GENRE Rock
REM DATE 2014
REM DISCID AD076C0E
REM COMMENT “ExactAudioCopy v1.0b3”
PERFORMER “The Beatles”
TITLE “The Beatles’ Second Album (UICY-76430)”
FILE “The Beatles – The Beatles’ Second Album (UICY-76430).flac” WAVE
TRACK 01 AUDIO
TITLE “Can’t Buy Me Love ”
PERFORMER “The Beatles”
INDEX 01 00:00:00
TRACK 02 AUDIO
TITLE “Do You Want To Know A Secret ”
PERFORMER “The Beatles”
INDEX 01 02:17:60
TRACK 03 AUDIO
TITLE “Thank You Girl ”
PERFORMER “The Beatles”
INDEX 01 04:19:02
TRACK 04 AUDIO
TITLE “A Taste Of Honey ”
PERFORMER “The Beatles”
INDEX 01 06:22:56
TRACK 05 AUDIO
TITLE “It Won’t Be Long ”
PERFORMER “The Beatles”
INDEX 01 08:29:08
TRACK 06 AUDIO
TITLE “I Wanna Be Your Man ”
PERFORMER “The Beatles”
INDEX 01 10:44:01
TRACK 07 AUDIO
TITLE “There’s A Place ”
PERFORMER “The Beatles”
INDEX 01 12:44:41
TRACK 08 AUDIO
TITLE “Roll Over Beethoven ”
PERFORMER “The Beatles”
INDEX 01 14:38:44
TRACK 09 AUDIO
TITLE “Misery ”
PERFORMER “The Beatles”
INDEX 01 17:27:53
TRACK 10 AUDIO
TITLE “Boys ”
PERFORMER “The Beatles”
INDEX 01 19:20:32
TRACK 11 AUDIO
TITLE “Devil In Her Heart ”
PERFORMER “The Beatles”
INDEX 01 21:49:62
TRACK 12 AUDIO
TITLE “Not A Second Time ”
PERFORMER “The Beatles”
INDEX 01 24:19:58
TRACK 13 AUDIO
TITLE “Money ”
PERFORMER “The Beatles”
INDEX 01 26:32:10
TRACK 14 AUDIO
TITLE “Till There Was You ”
PERFORMER “The Beatles”
INDEX 01 29:19:08


Leave a Reply

Your email address will not be published. Required fields are marked *

This site uses Akismet to reduce spam. Learn how your comment data is processed.