The Beatles – The Beatles (Japanese Edition)




[Total: 0    Average: 0/5]

Artist: The Beatles
Year: 1998
Genre: Rock
Notes: Discogs
Add. Notes: Japanese Edition
Cover incl.: Yes
Encoder: FLAC
Bitrate: ~800 kBit/s (44.1 kHz/16 Bit/s)
Log & Cue incl.: Yes
Size: 667,91 MB
Password: “slam” (without ” “)


All Downloads/Hosters are compatible

Download 1
Share-online.biz
Rapidgator.net
KatFile.com
UploadRar.com
Download 2
Share-online.biz
Rapidgator.net
KatFile.com
UploadRar.com

Tracklist:

1-1. Back In The U.S.S.R.
1-2. Dear Prudence 
1-3. Glass Onion
1-4. Ob-La-Di, Ob-La-Da
1-5. Wild Honey Pie
1-6. The Continuing Story Of Bungalow Bill
1-7. While My Guitar Gently Weeps
1-8. Happiness Is A Warm Gun
1-9. Martha My Dear 
1-10. I'm So Tired 
1-11. Blackbird 
1-12. Piggies
1-13. Rocky Raccoon
1-14. Don't Pass Me By
1-15. Why Don't We Do It In The Road?
1-16. I Will 
1-17. Julia 
2-1. Birthda 
2-2. Yer Blues
2-3. Mother Nature's Son
2-4. Everybody's Got Something To Hide Except Me And 
My Monkey
2-5. Sexy Sadie
2-6. Helter Skelter
2-7. Long, Long, Long
2-8. Revolution 1
2-9. Honey Pie
2-10. Savoy Truffle
2-11. Cry Baby Cry 
2-12. Revolution 9 
2-13. Good Night

EAC-Log, CUE-Sheed & NFO:

Click to open spoiler
Exact Audio Copy V1.0 beta 3 from 29. August 2011

EAC extraction logfile from 28. December 2013, 19:06

The Beatles / The Beatles (Disc1)

Used drive : PLEXTOR DVDR PX-891SA Adapter: 3 ID: 0

Read mode : Secure
Utilize accurate stream : Yes
Defeat audio cache : Yes
Make use of C2 pointers : No

Read offset correction : 6
Overread into Lead-In and Lead-Out : No
Fill up missing offset samples with silence : Yes
Delete leading and trailing silent blocks : No
Null samples used in CRC calculations : Yes
Used interface : Native Win32 interface for Win NT & 2000

Used output format : User Defined Encoder
Selected bitrate : 1024 kBit/s
Quality : High
Add ID3 tag : No
Command line compressor : C:\Program Files\Exact Audio Copy\Flac\flac.exe
Additional command line options : -V -8 -T “Genre=%genre%” -T “Artist=%artist%” -T “Title=%title%” -T “Album=%albumtitle%” -T “Date=%year%” -T “Tracknumber=%tracknr%” -T “Comment=%comment%” %source%

TOC of the extracted CD

Track | Start | Length | Start sector | End sector
———————————————————
1 | 0:00.00 | 2:43.17 | 0 | 12241
2 | 2:43.17 | 3:56.33 | 12242 | 29974
3 | 6:39.50 | 2:17.57 | 29975 | 40306
4 | 8:57.32 | 3:08.63 | 40307 | 54469
5 | 12:06.20 | 0:52.72 | 54470 | 58441
6 | 12:59.17 | 3:14.10 | 58442 | 73001
7 | 16:13.27 | 4:45.15 | 73002 | 94391
8 | 20:58.42 | 2:43.48 | 94392 | 106664
9 | 23:42.15 | 2:28.42 | 106665 | 117806
10 | 26:10.57 | 2:03.25 | 117807 | 127056
11 | 28:14.07 | 2:18.18 | 127057 | 137424
12 | 30:32.25 | 2:04.27 | 137425 | 146751
13 | 32:36.52 | 3:32.73 | 146752 | 162724
14 | 36:09.50 | 3:50.25 | 162725 | 179999
15 | 40:00.00 | 1:41.42 | 180000 | 187616
16 | 41:41.42 | 1:46.03 | 187617 | 195569
17 | 43:27.45 | 2:54.15 | 195570 | 208634

Range status and errors

Selected range

Filename H:\dafnaplus\1968 The Beatles (TOCP-51119-20)\Disc 1\The Beatles – The Beatles (Disc1).wav

Peak level 97.3 %
Extraction speed 5.7 X
Range quality 100.0 %
Test CRC 98EF72A6
Copy CRC 98EF72A6
Copy OK

No errors occurred

AccurateRip summary

Track 1 cannot be verified as accurate (confidence 13) [88E37C48], AccurateRip returned [AB69743C] (AR v2)
Track 2 cannot be verified as accurate (confidence 13) [E958758A], AccurateRip returned [0EB3F338] (AR v2)
Track 3 cannot be verified as accurate (confidence 13) [AC7E50FD], AccurateRip returned [F8D65499] (AR v2)
Track 4 cannot be verified as accurate (confidence 13) [C1794447], AccurateRip returned [E008529D] (AR v2)
Track 5 cannot be verified as accurate (confidence 13) [5A7B164E], AccurateRip returned [62FD0B7D] (AR v2)
Track 6 cannot be verified as accurate (confidence 13) [B5937968], AccurateRip returned [1AB90F2F] (AR v2)
Track 7 cannot be verified as accurate (confidence 13) [A1D848BC], AccurateRip returned [C2643B5B] (AR v2)
Track 8 cannot be verified as accurate (confidence 13) [F1B82136], AccurateRip returned [EFFED015] (AR v2)
Track 9 cannot be verified as accurate (confidence 13) [B04EA3D7], AccurateRip returned [4060D6DF] (AR v2)
Track 10 cannot be verified as accurate (confidence 13) [8A334204], AccurateRip returned [79529901] (AR v2)
Track 11 cannot be verified as accurate (confidence 13) [8600FBE0], AccurateRip returned [97710CDB] (AR v2)
Track 12 cannot be verified as accurate (confidence 13) [CC765393], AccurateRip returned [4FF47108] (AR v2)
Track 13 cannot be verified as accurate (confidence 13) [0809428C], AccurateRip returned [83C424CE] (AR v2)
Track 14 cannot be verified as accurate (confidence 13) [13C3FCF3], AccurateRip returned [AB161F7E] (AR v2)
Track 15 cannot be verified as accurate (confidence 13) [94D75994], AccurateRip returned [7F95F298] (AR v2)
Track 16 cannot be verified as accurate (confidence 13) [9F2B722B], AccurateRip returned [91DE996E] (AR v2)
Track 17 cannot be verified as accurate (confidence 13) [DD8A0AE0], AccurateRip returned [68C99E7A] (AR v2)

No tracks could be verified as accurate
You may have a different pressing from the one(s) in the database

End of status report

==== Log checksum DF70BA6B0C6870787CE89980508446DBF0078DDA970DD43AEE4F1169C437329A ====

Exact Audio Copy V1.0 beta 3 from 29. August 2011

EAC extraction logfile from 28. December 2013, 19:25

The Beatles / The Beatles (Disc2)

Used drive : PLEXTOR DVDR PX-891SA Adapter: 3 ID: 0

Read mode : Secure
Utilize accurate stream : Yes
Defeat audio cache : Yes
Make use of C2 pointers : No

Read offset correction : 6
Overread into Lead-In and Lead-Out : No
Fill up missing offset samples with silence : Yes
Delete leading and trailing silent blocks : No
Null samples used in CRC calculations : Yes
Used interface : Native Win32 interface for Win NT & 2000

Used output format : User Defined Encoder
Selected bitrate : 1024 kBit/s
Quality : High
Add ID3 tag : No
Command line compressor : C:\Program Files\Exact Audio Copy\Flac\flac.exe
Additional command line options : -V -8 -T “Genre=%genre%” -T “Artist=%artist%” -T “Title=%title%” -T “Album=%albumtitle%” -T “Date=%year%” -T “Tracknumber=%tracknr%” -T “Comment=%comment%” %source%

TOC of the extracted CD

Track | Start | Length | Start sector | End sector
———————————————————
1 | 0:00.00 | 2:42.57 | 0 | 12206
2 | 2:42.57 | 4:01.18 | 12207 | 30299
3 | 6:44.00 | 2:48.02 | 30300 | 42901
4 | 9:32.02 | 2:24.43 | 42902 | 53744
5 | 11:56.45 | 3:15.27 | 53745 | 68396
6 | 15:11.72 | 4:29.65 | 68397 | 88636
7 | 19:41.62 | 3:04.25 | 88637 | 102461
8 | 22:46.12 | 4:15.55 | 102462 | 121641
9 | 27:01.67 | 2:41.25 | 121642 | 133741
10 | 29:43.17 | 2:54.68 | 133742 | 146859
11 | 32:38.10 | 3:01.65 | 146860 | 160499
12 | 35:40.00 | 8:22.15 | 160500 | 198164
13 | 44:02.15 | 3:11.60 | 198165 | 212549

Range status and errors

Selected range

Filename H:\dafnaplus\1968 The Beatles (TOCP-51119-20)\Disc 2\The Beatles – The Beatles (Disc2).wav

Peak level 92.2 %
Extraction speed 5.7 X
Range quality 100.0 %
Test CRC 19F03145
Copy CRC 19F03145
Copy OK

No errors occurred

AccurateRip summary

Track 1 cannot be verified as accurate (confidence 14) [86E126C6], AccurateRip returned [1C7F8FF5] (AR v2)
Track 2 cannot be verified as accurate (confidence 14) [202425B3], AccurateRip returned [D5E66592] (AR v2)
Track 3 cannot be verified as accurate (confidence 14) [EF8C1560], AccurateRip returned [5327DF74] (AR v2)
Track 4 cannot be verified as accurate (confidence 14) [AA94B323], AccurateRip returned [B1178B88] (AR v2)
Track 5 cannot be verified as accurate (confidence 14) [63DC8D8F], AccurateRip returned [A9F7AA01] (AR v2)
Track 6 cannot be verified as accurate (confidence 14) [EB0B5A1E], AccurateRip returned [03C39313] (AR v2)
Track 7 cannot be verified as accurate (confidence 14) [58C12AB4], AccurateRip returned [35B9E301] (AR v2)
Track 8 cannot be verified as accurate (confidence 14) [BA452293], AccurateRip returned [76354AC9] (AR v2)
Track 9 cannot be verified as accurate (confidence 14) [1983BD71], AccurateRip returned [13135B76] (AR v2)
Track 10 cannot be verified as accurate (confidence 14) [AC304468], AccurateRip returned [000607E0] (AR v2)
Track 11 cannot be verified as accurate (confidence 14) [0E1B2414], AccurateRip returned [21542517] (AR v2)
Track 12 cannot be verified as accurate (confidence 14) [475A5C74], AccurateRip returned [1D37364E] (AR v2)
Track 13 cannot be verified as accurate (confidence 14) [01CD4486], AccurateRip returned [130B9B36] (AR v2)

No tracks could be verified as accurate
You may have a different pressing from the one(s) in the database

End of status report

==== Log checksum 0237365AE098589D496BCDC1D88A5C9231533C854FBBA15E24FE69D6BF9759A7 ====

REM GENRE Rock
REM DATE 1998
REM DISCID E80ADD11
REM COMMENT “ExactAudioCopy v1.0b3”
PERFORMER “The Beatles”
TITLE “The Beatles (Disc1)”
FILE “The Beatles – The Beatles (Disc1).flac” WAVE
TRACK 01 AUDIO
TITLE “Back in the USSR”
PERFORMER “The Beatles”
INDEX 01 00:00:00
TRACK 02 AUDIO
TITLE “Dear Prudence”
PERFORMER “The Beatles”
INDEX 01 02:43:17
TRACK 03 AUDIO
TITLE “Glass Onion”
PERFORMER “The Beatles”
INDEX 00 06:39:05
INDEX 01 06:39:50
TRACK 04 AUDIO
TITLE “Ob-La-Di, Ob-La-Da”
PERFORMER “The Beatles”
INDEX 01 08:57:32
TRACK 05 AUDIO
TITLE “Wild Honey Pie”
PERFORMER “The Beatles”
INDEX 01 12:06:20
TRACK 06 AUDIO
TITLE “The Continuing Story Of Bungalow Bill”
PERFORMER “The Beatles”
INDEX 01 12:59:17
TRACK 07 AUDIO
TITLE “While My Guitar Gently Weeps”
PERFORMER “The Beatles”
INDEX 01 16:13:27
TRACK 08 AUDIO
TITLE “Happiness Is A Warm Gun”
PERFORMER “The Beatles”
INDEX 01 20:58:42
TRACK 09 AUDIO
TITLE “Martha My Dear”
PERFORMER “The Beatles”
INDEX 00 23:41:62
INDEX 01 23:42:15
TRACK 10 AUDIO
TITLE “I’m So Tired”
PERFORMER “The Beatles”
INDEX 01 26:10:57
TRACK 11 AUDIO
TITLE “Black Bird”
PERFORMER “The Beatles”
INDEX 01 28:14:07
TRACK 12 AUDIO
TITLE “Piggies”
PERFORMER “The Beatles”
INDEX 01 30:32:25
TRACK 13 AUDIO
TITLE “Rocky Raccoon”
PERFORMER “The Beatles”
INDEX 01 32:36:52
TRACK 14 AUDIO
TITLE “Don’t Pass Me By”
PERFORMER “The Beatles”
INDEX 01 36:09:50
TRACK 15 AUDIO
TITLE “Why Don’t We Do It In The Road”
PERFORMER “The Beatles”
INDEX 01 40:00:00
TRACK 16 AUDIO
TITLE “I Will”
PERFORMER “The Beatles”
INDEX 00 41:41:10
INDEX 01 41:41:42
TRACK 17 AUDIO
TITLE “Julia”
PERFORMER “The Beatles”
INDEX 00 43:27:27
INDEX 01 43:27:45

REM GENRE Rock
REM DATE 1998
REM DISCID AD0B120D
REM COMMENT “ExactAudioCopy v1.0b3”
PERFORMER “The Beatles”
TITLE “The Beatles (Disc2)”
FILE “The Beatles – The Beatles (Disc2).flac” WAVE
TRACK 01 AUDIO
TITLE “Birthday”
PERFORMER “The Beatles”
INDEX 01 00:00:00
TRACK 02 AUDIO
TITLE “Yer Blues”
PERFORMER “The Beatles”
INDEX 01 02:42:57
TRACK 03 AUDIO
TITLE “Mother Nature’s Son”
PERFORMER “The Beatles”
INDEX 00 06:43:55
INDEX 01 06:44:00
TRACK 04 AUDIO
TITLE “Everybody’s Got Something To Hide Except Me And My Monkey”
PERFORMER “The Beatles”
INDEX 00 09:31:60
INDEX 01 09:32:02
TRACK 05 AUDIO
TITLE “Sexy Sadie”
PERFORMER “The Beatles”
INDEX 01 11:56:45
TRACK 06 AUDIO
TITLE “Helter Skelter”
PERFORMER “The Beatles”
INDEX 01 15:11:72
TRACK 07 AUDIO
TITLE “Long, Long, Long”
PERFORMER “The Beatles”
INDEX 01 19:41:62
TRACK 08 AUDIO
TITLE “Revolution 1”
PERFORMER “The Beatles”
INDEX 00 22:45:62
INDEX 01 22:46:12
TRACK 09 AUDIO
TITLE “Honey Pie”
PERFORMER “The Beatles”
INDEX 00 27:01:45
INDEX 01 27:01:67
TRACK 10 AUDIO
TITLE “Savoy Truffle”
PERFORMER “The Beatles”
INDEX 00 29:42:65
INDEX 01 29:43:17
TRACK 11 AUDIO
TITLE “Cry Baby Cry”
PERFORMER “The Beatles”
INDEX 00 32:37:22
INDEX 01 32:38:10
TRACK 12 AUDIO
TITLE “Revolution 9”
PERFORMER “The Beatles”
INDEX 01 35:40:00
TRACK 13 AUDIO
TITLE “Good Night”
PERFORMER “The Beatles”
INDEX 00 44:01:72
INDEX 01 44:02:15


Spread the Download

Leave a Reply

Your email address will not be published. Required fields are marked *

Enter the text from the image below
 

This site uses Akismet to reduce spam. Learn how your comment data is processed.