The Beatles – The Beatles (30th Anniversary Limited Edition)




Artist: The Beatles
Year: 1968/1998
Genre: Rock
Notes: Discogs
Add. Notes: 30th Anniversary Limited Edition
Cover incl.: Yes
Encoder: FLAC
Bitrate: ~800 kBit/s (44.1 kHz/16 Bit/s)
Log & Cue incl.: Yes
Size: 685,4 MB
Password: “slam” (without ” “)


All Downloads/Hosters are compatible

Download 1
KatFile.com
Turbobit.net
FileFactory.com
Rapidgator.net
Download 2
KatFile.com
Turbobit.net
FileFactory.com
Rapidgator.net

Tracklist:

CD 1:
01. Back In The U.S.S.R. 2:43
02. Dear Prudence 3:56
03. Glass Onion 2:18
04. Ob-La-Di, Ob-La-Da 3:09
05. Wild Honey Pie 0:53
06. The Continuing Story Of Bungalow Bill 3:14
07. While My Guitar Gently Weeps 4:45
08. Happiness Is A Warm Gun 2:43
09. Martha My Dear 2:29
10. I'm So Tired 2:03
11. Blackbird 2:18
12. Piggies 2:04
13. Rocky Raccoon 3:33
14. Don't Pass Me By 3:50
15. Why Don't We Do It In The Road? 1:41
16. I Will 1:46
17. Julia 2:54

CD 2:
01. Birthday 2:43
02. Yer Blues 4:01
03. Mother Nature's Son 2:48
04. Everybody's Got Something To Hide Except Me And 
My Monkey 2:25
05. Sexy Sadie 3:15
06. Helter Skelter 4:30
07. Long, Long, Long 3:04
08. Revolution 1 4:16
09. Honey Pie 2:41
10. Savoy Truffle 2:55
11. Cry Baby Cry 3:02
12. Revolution 9 8:22
13. Good Night 3:12

EAC-Log, CUE-Sheed & NFO:

Click to open spoiler
Exact Audio Copy V1.3 from 2. September 2016

EAC extraction logfile from 10. December 2016, 18:34

The Beatles / The Beatles (Disc 1)

Used drive : PLEXTOR DVDR PX-891SA Adapter: 1 ID: 0

Read mode : Secure
Utilize accurate stream : Yes
Defeat audio cache : Yes
Make use of C2 pointers : No

Read offset correction : 6
Overread into Lead-In and Lead-Out : No
Fill up missing offset samples with silence : Yes
Delete leading and trailing silent blocks : No
Null samples used in CRC calculations : Yes
Used interface : Native Win32 interface for Win NT & 2000

Used output format : User Defined Encoder
Selected bitrate : 128 kBit/s
Quality : High
Add ID3 tag : No
Command line compressor : C:\Program Files (x86)\Exact Audio Copy\Flac\flac.exe
Additional command line options : -V -8 -T “Genre=%genre%” -T “Artist=%artist%” -T “Title=%title%” -T “Album=%albumtitle%” -T “Date=%year%” -T “Tracknumber=%tracknr%” -T “Comment=%comment%” %source%

TOC of the extracted CD

Track | Start | Length | Start sector | End sector
———————————————————
1 | 0:00.32 | 2:43.23 | 32 | 12279
2 | 2:43.55 | 3:56.27 | 12280 | 30006
3 | 6:40.07 | 2:17.73 | 30007 | 40354
4 | 8:58.05 | 3:08.62 | 40355 | 54516
5 | 12:06.67 | 0:52.68 | 54517 | 58484
6 | 12:59.60 | 3:14.05 | 58485 | 73039
7 | 16:13.65 | 4:45.22 | 73040 | 94436
8 | 20:59.12 | 2:43.35 | 94437 | 106696
9 | 23:42.47 | 2:28.55 | 106697 | 117851
10 | 26:11.27 | 2:03.23 | 117852 | 127099
11 | 28:14.50 | 2:18.20 | 127100 | 137469
12 | 30:32.70 | 2:04.25 | 137470 | 146794
13 | 32:37.20 | 3:32.67 | 146795 | 162761
14 | 36:10.12 | 3:50.30 | 162762 | 180041
15 | 40:00.42 | 1:41.33 | 180042 | 187649
16 | 41:42.00 | 1:46.02 | 187650 | 195601
17 | 43:28.02 | 2:54.15 | 195602 | 208666

Range status and errors

Selected range

Filename H:\dafnaplus\The Beatles\Disc 1\The Beatles – The Beatles (Disc 1).wav

Peak level 97.3 %
Extraction speed 6.1 X
Range quality 99.9 %
Test CRC 97837E73
Copy CRC 97837E73
Copy OK

No errors occurred

AccurateRip summary

Track 1 accurately ripped (confidence 170) [C9F86AAB] (AR v2)
Track 2 accurately ripped (confidence 170) [182CEC1B] (AR v2)
Track 3 accurately ripped (confidence 170) [EB17409F] (AR v2)
Track 4 accurately ripped (confidence 170) [79AA438C] (AR v2)
Track 5 accurately ripped (confidence 171) [18A04B84] (AR v2)
Track 6 accurately ripped (confidence 171) [CABA5424] (AR v2)
Track 7 accurately ripped (confidence 170) [C0B316B4] (AR v2)
Track 8 accurately ripped (confidence 171) [316D0908] (AR v2)
Track 9 accurately ripped (confidence 170) [0A70A054] (AR v2)
Track 10 accurately ripped (confidence 171) [0CF7FAA9] (AR v2)
Track 11 accurately ripped (confidence 171) [738EBFAF] (AR v2)
Track 12 accurately ripped (confidence 171) [1081D1A9] (AR v2)
Track 13 accurately ripped (confidence 170) [40EEBB28] (AR v2)
Track 14 accurately ripped (confidence 167) [AC694568] (AR v2)
Track 15 accurately ripped (confidence 167) [99E611D7] (AR v2)
Track 16 accurately ripped (confidence 168) [DB5F1609] (AR v2)
Track 17 accurately ripped (confidence 167) [B2AEA3D4] (AR v2)

All tracks accurately ripped

End of status report

—- CUETools DB Plugin V2.1.6

[CTDB TOCID: aHHylc8.ffTT90CseRxu3qmKqFc-] found
Submit result: aHHylc8.ffTT90CseRxu3qmKqFc- has been confirmed
Track | CTDB Status
1 | (671/876) Accurately ripped, or (170/876) differs in 210 samples @00:10:38
2 | (840/876) Accurately ripped
3 | (837/876) Accurately ripped, or (3/876) differs in 29 samples @00:00:29-00:00:30
4 | (841/876) Accurately ripped
5 | (840/876) Accurately ripped
6 | (839/876) Accurately ripped
7 | (837/876) Accurately ripped
8 | (839/876) Accurately ripped
9 | (833/876) Accurately ripped
10 | (838/876) Accurately ripped
11 | (837/876) Accurately ripped
12 | (838/876) Accurately ripped
13 | (832/876) Accurately ripped
14 | (833/876) Accurately ripped
15 | (841/876) Accurately ripped
16 | (842/876) Accurately ripped
17 | (840/876) Accurately ripped

==== Log checksum E34D7BAF27AE56CEA6A4194C278A8367C534740EE467707FE0CD7021BE0E5693 ====

Exact Audio Copy V1.3 from 2. September 2016

EAC extraction logfile from 10. December 2016, 18:55

The Beatles / The Beatles (Disc 2)

Used drive : PLEXTOR DVDR PX-891SA Adapter: 1 ID: 0

Read mode : Secure
Utilize accurate stream : Yes
Defeat audio cache : Yes
Make use of C2 pointers : No

Read offset correction : 6
Overread into Lead-In and Lead-Out : No
Fill up missing offset samples with silence : Yes
Delete leading and trailing silent blocks : No
Null samples used in CRC calculations : Yes
Used interface : Native Win32 interface for Win NT & 2000

Used output format : User Defined Encoder
Selected bitrate : 128 kBit/s
Quality : High
Add ID3 tag : No
Command line compressor : C:\Program Files (x86)\Exact Audio Copy\Flac\flac.exe
Additional command line options : -V -8 -T “Genre=%genre%” -T “Artist=%artist%” -T “Title=%title%” -T “Album=%albumtitle%” -T “Date=%year%” -T “Tracknumber=%tracknr%” -T “Comment=%comment%” %source%

TOC of the extracted CD

Track | Start | Length | Start sector | End sector
———————————————————
1 | 0:00.32 | 2:42.68 | 32 | 12249
2 | 2:43.25 | 4:01.07 | 12250 | 30331
3 | 6:44.32 | 2:48.03 | 30332 | 42934
4 | 9:32.35 | 2:24.60 | 42935 | 53794
5 | 11:57.20 | 3:15.25 | 53795 | 68444
6 | 15:12.45 | 4:29.50 | 68445 | 88669
7 | 19:42.20 | 3:04.25 | 88670 | 102494
8 | 22:46.45 | 4:15.55 | 102495 | 121674
9 | 27:02.25 | 2:41.25 | 121675 | 133774
10 | 29:43.50 | 2:54.67 | 133775 | 146891
11 | 32:38.42 | 3:01.65 | 146892 | 160531
12 | 35:40.32 | 8:22.15 | 160532 | 198196
13 | 44:02.47 | 3:11.60 | 198197 | 212581

Range status and errors

Selected range

Filename H:\dafnaplus\The Beatles\Disc 2\The Beatles – The Beatles (Disc 2).wav

Peak level 92.2 %
Extraction speed 6.7 X
Range quality 99.9 %
Test CRC AD06B71D
Copy CRC AD06B71D
Copy OK

No errors occurred

AccurateRip summary

Track 1 accurately ripped (confidence 200) [AAD0F925] (AR v2)
Track 2 accurately ripped (confidence 200) [57D31A2D] (AR v2)
Track 3 accurately ripped (confidence 200) [4CE67A69] (AR v2)
Track 4 accurately ripped (confidence 200) [631E72F5] (AR v2)
Track 5 accurately ripped (confidence 200) [DB7AD8B3] (AR v2)
Track 6 accurately ripped (confidence 200) [03825AFC] (AR v2)
Track 7 accurately ripped (confidence 200) [98ACB0D0] (AR v2)
Track 8 accurately ripped (confidence 200) [9AD23602] (AR v2)
Track 9 accurately ripped (confidence 200) [50750858] (AR v2)
Track 10 accurately ripped (confidence 200) [C373B7C0] (AR v2)
Track 11 accurately ripped (confidence 200) [18768523] (AR v2)
Track 12 accurately ripped (confidence 200) [945B7860] (AR v2)
Track 13 accurately ripped (confidence 200) [3D5C33C8] (AR v2)

All tracks accurately ripped

End of status report

—- CUETools DB Plugin V2.1.6

[CTDB TOCID: BQcAt0SUPZmlq7FiCInzDK24FPc-] found
Submit result: BQcAt0SUPZmlq7FiCInzDK24FPc- has been confirmed
Track | CTDB Status
1 | (794/835) Accurately ripped
2 | (801/835) Accurately ripped
3 | (806/835) Accurately ripped
4 | (800/835) Accurately ripped
5 | (801/835) Accurately ripped
6 | (800/835) Accurately ripped
7 | (806/835) Accurately ripped
8 | (791/835) Accurately ripped
9 | (802/835) Accurately ripped
10 | (799/835) Accurately ripped
11 | (794/835) Accurately ripped
12 | (774/835) Accurately ripped
13 | (791/835) Accurately ripped, or (3/835) differs in 36 samples @02:57:10-02:57:11,02:59:38,03:02:42-03:02:43,03:04:16-03:04:17,03:05:13

==== Log checksum 9D7D2061D8CC963B2593303B35C96AAD7BA1B59D62E4F3526B10D31497BDA02E ====

REM GENRE Rock
REM DATE 1998
REM DISCID DE0ADE11
REM COMMENT “ExactAudioCopy v1.3”
PERFORMER “The Beatles”
TITLE “The Beatles (Disc 1)”
REM COMPOSER “”
FILE “The Beatles – The Beatles (Disc 1).flac” WAVE
TRACK 01 AUDIO
TITLE “Back In The U.S.S.R.”
PERFORMER “The Beatles”
REM COMPOSER “”
INDEX 00 00:00:00
INDEX 01 00:00:32
TRACK 02 AUDIO
TITLE “Dear Prudence”
PERFORMER “The Beatles”
REM COMPOSER “”
INDEX 00 02:43:52
INDEX 01 02:43:55
TRACK 03 AUDIO
TITLE “Glass Onion”
PERFORMER “The Beatles”
REM COMPOSER “”
INDEX 00 06:39:37
INDEX 01 06:40:07
TRACK 04 AUDIO
TITLE “Ob-La-Di, Ob-La-Da”
PERFORMER “The Beatles”
REM COMPOSER “”
INDEX 00 08:58:02
INDEX 01 08:58:05
TRACK 05 AUDIO
TITLE “Wild Honey Pie”
PERFORMER “The Beatles”
REM COMPOSER “”
INDEX 00 12:06:65
INDEX 01 12:06:67
TRACK 06 AUDIO
TITLE “The Continuing Story Of Bungalow Bill”
PERFORMER “The Beatles”
REM COMPOSER “”
INDEX 00 12:59:57
INDEX 01 12:59:60
TRACK 07 AUDIO
TITLE “While My Guitar Gently Weeps”
PERFORMER “The Beatles”
REM COMPOSER “”
INDEX 00 16:13:62
INDEX 01 16:13:65
TRACK 08 AUDIO
TITLE “Happiness Is A Warm Gun”
PERFORMER “The Beatles”
REM COMPOSER “”
INDEX 00 20:59:10
INDEX 01 20:59:12
TRACK 09 AUDIO
TITLE “Martha My Dear”
PERFORMER “The Beatles”
REM COMPOSER “”
INDEX 00 23:42:20
INDEX 01 23:42:47
TRACK 10 AUDIO
TITLE “I’m So Tired”
PERFORMER “The Beatles”
REM COMPOSER “”
INDEX 00 26:11:25
INDEX 01 26:11:27
TRACK 11 AUDIO
TITLE “Blackbird”
PERFORMER “The Beatles”
REM COMPOSER “”
INDEX 00 28:14:47
INDEX 01 28:14:50
TRACK 12 AUDIO
TITLE “Piggies”
PERFORMER “The Beatles”
REM COMPOSER “”
INDEX 00 30:32:67
INDEX 01 30:32:70
TRACK 13 AUDIO
TITLE “Rocky Raccoon”
PERFORMER “The Beatles”
REM COMPOSER “”
INDEX 00 32:37:17
INDEX 01 32:37:20
TRACK 14 AUDIO
TITLE “Don’t Pass Me By”
PERFORMER “The Beatles”
REM COMPOSER “”
INDEX 00 36:10:10
INDEX 01 36:10:12
TRACK 15 AUDIO
TITLE “Why Don’t We Do It In The Road?”
PERFORMER “The Beatles”
REM COMPOSER “”
INDEX 00 40:00:40
INDEX 01 40:00:42
TRACK 16 AUDIO
TITLE “I Will”
PERFORMER “The Beatles”
REM COMPOSER “”
INDEX 00 41:41:42
INDEX 01 41:42:00
TRACK 17 AUDIO
TITLE “Julia”
PERFORMER “The Beatles”
REM COMPOSER “”
INDEX 00 43:27:60
INDEX 01 43:28:02

REM GENRE Rock
REM DATE 1998
REM DISCID B20B120D
REM COMMENT “ExactAudioCopy v1.3”
PERFORMER “The Beatles”
TITLE “The Beatles (Disc 2)”
REM COMPOSER “”
FILE “The Beatles – The Beatles (Disc 2).flac” WAVE
TRACK 01 AUDIO
TITLE “Birthday”
PERFORMER “The Beatles”
REM COMPOSER “”
INDEX 00 00:00:00
INDEX 01 00:00:32
TRACK 02 AUDIO
TITLE “Yer Blues”
PERFORMER “The Beatles”
REM COMPOSER “”
INDEX 00 02:43:22
INDEX 01 02:43:25
TRACK 03 AUDIO
TITLE “Mother Nature’s Son”
PERFORMER “The Beatles”
REM COMPOSER “”
INDEX 00 06:44:12
INDEX 01 06:44:32
TRACK 04 AUDIO
TITLE “Everybody’s Got Something To Hide Except Me And My Monkey”
PERFORMER “The Beatles”
REM COMPOSER “”
INDEX 00 09:32:17
INDEX 01 09:32:35
TRACK 05 AUDIO
TITLE “Sexy Sadie”
PERFORMER “The Beatles”
REM COMPOSER “”
INDEX 00 11:57:17
INDEX 01 11:57:20
TRACK 06 AUDIO
TITLE “Helter Skelter”
PERFORMER “The Beatles”
REM COMPOSER “”
INDEX 00 15:12:42
INDEX 01 15:12:45
TRACK 07 AUDIO
TITLE “Long, Long, Long”
PERFORMER “The Beatles”
REM COMPOSER “”
INDEX 00 19:42:17
INDEX 01 19:42:20
TRACK 08 AUDIO
TITLE “Revolution 1”
PERFORMER “The Beatles”
REM COMPOSER “”
INDEX 00 22:46:20
INDEX 01 22:46:45
TRACK 09 AUDIO
TITLE “Honey Pie”
PERFORMER “The Beatles”
REM COMPOSER “”
INDEX 00 27:02:02
INDEX 01 27:02:25
TRACK 10 AUDIO
TITLE “Savoy Truffle”
PERFORMER “The Beatles”
REM COMPOSER “”
INDEX 00 29:43:22
INDEX 01 29:43:50
TRACK 11 AUDIO
TITLE “Cry Baby Cry”
PERFORMER “The Beatles”
REM COMPOSER “”
INDEX 00 32:37:55
INDEX 01 32:38:42
TRACK 12 AUDIO
TITLE “Revolution 9”
PERFORMER “The Beatles”
REM COMPOSER “”
INDEX 00 35:40:30
INDEX 01 35:40:32
TRACK 13 AUDIO
TITLE “Good Night”
PERFORMER “The Beatles”
REM COMPOSER “”
INDEX 00 44:02:30
INDEX 01 44:02:47


Leave a Reply

Your email address will not be published. Required fields are marked *

Enter the text from the image below
 

This site uses Akismet to reduce spam. Learn how your comment data is processed.