The Beatles – Sgt. Pepper’s Lonely Hearts Club Band




Artist: The Beatles
Year: 1998
Genre: Rock
Notes: Discogs
Add. Notes:
Cover incl.: Yes
Encoder: FLAC
Bitrate: ~800 kBit/s (44.1 kHz/16 Bit/s)
Log & Cue incl.: Yes
Size: 475,03 MB
Password: “slam” (without ” “)


All Downloads/Hosters are compatible

Download 1
Turbobit.net
NitroFlare.com
KatFile.com
Rapidgator.net
Download 2
Turbobit.net
NitroFlare.com
KatFile.com
Rapidgator.net

Tracklist:

1 - Sgt. Pepper's Lonely Hearts Club Band - 2:02
2 - With A Little Help From My Friends - 2:44
3 - Lucy In The Sky With Diamonds - 3:28
4 - Getting Better - 2:47
5 - Fixing A Hole - 2:36
6 - She's Leaving Home - 3:35
7 - Being For The Benefit Of Mr. Kite! - 2:37
8 - Within You Without You - 5:05
9 - When I'm Sixty-Four - 2:37
10 - Lovely Rita - 2:42
11 - Good Morning Good Morning - 2:41
12 - Sgt. Pepper's Lonely Hearts Club Band (Reprise) - 
1:18
13 - A Day In The Life - 5:33

EAC-Log, CUE-Sheed & NFO:

Click to open spoiler
Exact Audio Copy V1.0 beta 3 from 29. August 2011

EAC extraction logfile from 28. December 2013, 0:11

The Beatles / Sgt. Pepper’s Lonely Hearts Club Band

Used drive : PLEXTOR DVDR PX-891SA Adapter: 3 ID: 0

Read mode : Secure
Utilize accurate stream : Yes
Defeat audio cache : Yes
Make use of C2 pointers : No

Read offset correction : 6
Overread into Lead-In and Lead-Out : No
Fill up missing offset samples with silence : Yes
Delete leading and trailing silent blocks : No
Null samples used in CRC calculations : Yes
Used interface : Native Win32 interface for Win NT & 2000

Used output format : User Defined Encoder
Selected bitrate : 1024 kBit/s
Quality : High
Add ID3 tag : No
Command line compressor : C:\Program Files\Exact Audio Copy\Flac\flac.exe
Additional command line options : -V -8 -T “Genre=%genre%” -T “Artist=%artist%” -T “Title=%title%” -T “Album=%albumtitle%” -T “Date=%year%” -T “Tracknumber=%tracknr%” -T “Comment=%comment%” %source%

TOC of the extracted CD

Track | Start | Length | Start sector | End sector
———————————————————
1 | 0:00.32 | 2:02.33 | 32 | 9214
2 | 2:02.65 | 2:44.00 | 9215 | 21514
3 | 4:46.65 | 3:28.35 | 21515 | 37149
4 | 8:15.25 | 2:47.62 | 37150 | 49736
5 | 11:03.12 | 2:36.50 | 49737 | 61486
6 | 13:39.62 | 3:35.05 | 61487 | 77616
7 | 17:14.67 | 2:37.08 | 77617 | 89399
8 | 19:52.00 | 5:05.00 | 89400 | 112274
9 | 24:57.00 | 2:37.52 | 112275 | 124101
10 | 27:34.52 | 2:42.08 | 124102 | 136259
11 | 30:16.60 | 2:41.22 | 136260 | 148356
12 | 32:58.07 | 1:18.68 | 148357 | 154274
13 | 34:17.00 | 5:33.67 | 154275 | 179316

Range status and errors

Selected range

Filename H:\dafnaplus\1967 Beatles – Sgt. Pepper’s Lonely Hearts Club Band (TOCP-51118)\The Beatles – Sgt. Pepper’s Lonely Hearts Club Band.wav

Peak level 98.3 %
Extraction speed 5.4 X
Range quality 100.0 %
Test CRC F9F700ED
Copy CRC F9F700ED
Copy OK

No errors occurred

AccurateRip summary

Track 1 accurately ripped (confidence 2) [F1B999E4] (AR v1)
Track 2 accurately ripped (confidence 2) [3F441330] (AR v1)
Track 3 accurately ripped (confidence 2) [62D022C4] (AR v1)
Track 4 accurately ripped (confidence 2) [03221AFD] (AR v1)
Track 5 accurately ripped (confidence 2) [9B5288FD] (AR v1)
Track 6 accurately ripped (confidence 2) [ECCC94EB] (AR v1)
Track 7 accurately ripped (confidence 2) [837F429E] (AR v1)
Track 8 accurately ripped (confidence 2) [CF049155] (AR v1)
Track 9 accurately ripped (confidence 2) [62736A01] (AR v1)
Track 10 accurately ripped (confidence 2) [6B30F69C] (AR v1)
Track 11 accurately ripped (confidence 2) [2607A4C6] (AR v1)
Track 12 accurately ripped (confidence 2) [42CBF0F7] (AR v1)
Track 13 accurately ripped (confidence 2) [207CBABE] (AR v1)

All tracks accurately ripped

End of status report

==== Log checksum 862CD716DD27A6E25AA4E341A61E891A2A08A003FA0E5FB101DFF0485620EC52 ====

REM GENRE Rock
REM DATE 1998
REM DISCID C109560D
REM COMMENT “ExactAudioCopy v1.0b3”
PERFORMER “The Beatles”
TITLE “Sgt. Pepper’s Lonely Hearts Club Band”
FILE “The Beatles – Sgt. Pepper’s Lonely Hearts Club Band.flac” WAVE
TRACK 01 AUDIO
TITLE “Sgt. Pepper’s Lonely Hearts Club Band”
PERFORMER “The Beatles”
INDEX 00 00:00:00
INDEX 01 00:00:32
TRACK 02 AUDIO
TITLE “With A Little Help From My Friends”
PERFORMER “The Beatles”
INDEX 01 02:02:65
TRACK 03 AUDIO
TITLE “Lucy In The Sky With Diamonds”
PERFORMER “The Beatles”
INDEX 01 04:46:65
TRACK 04 AUDIO
TITLE “Getting Better”
PERFORMER “The Beatles”
INDEX 00 08:14:15
INDEX 01 08:15:25
TRACK 05 AUDIO
TITLE “Fixing A Hole”
PERFORMER “The Beatles”
INDEX 01 11:03:12
TRACK 06 AUDIO
TITLE “She’s Leaving Home”
PERFORMER “The Beatles”
INDEX 00 13:38:62
INDEX 01 13:39:62
TRACK 07 AUDIO
TITLE “Being For The Benefit Of Mr. Kite!”
PERFORMER “The Beatles”
INDEX 01 17:14:67
TRACK 08 AUDIO
TITLE “Within You Without You”
PERFORMER “The Beatles”
INDEX 00 19:51:20
INDEX 01 19:52:00
TRACK 09 AUDIO
TITLE “When I’m Sixty-Four”
PERFORMER “The Beatles”
INDEX 01 24:57:00
TRACK 10 AUDIO
TITLE “Lovely Rita”
PERFORMER “The Beatles”
INDEX 01 27:34:52
TRACK 11 AUDIO
TITLE “Good Morning Good Morning”
PERFORMER “The Beatles”
INDEX 01 30:16:60
TRACK 12 AUDIO
TITLE “Sgt. Pepper’s Lonely Hearts Club Band (Reprise)”
PERFORMER “The Beatles”
INDEX 01 32:58:07
TRACK 13 AUDIO
TITLE “A Day In The Life”
PERFORMER “The Beatles”
INDEX 01 34:17:00


Leave a Reply

Your email address will not be published. Required fields are marked *

This site uses Akismet to reduce spam. Learn how your comment data is processed.