The Beatles – Sgt. Pepper’s Lonely Hearts Club Band (Reissue)




[Total: 0    Average: 0/5]

Artist: The Beatles
Year: 1967/1987
Genre: Rock
Notes: Discogs
Add. Notes: Reissue
Cover incl.: Yes
Encoder: FLAC
Bitrate: ~800 kBit/s (44.1 kHz/16 Bit/s)
Log & Cue incl.: Yes
Size: 381,4 MB
Password: “slam” (without ” “)


All Downloads/Hosters are compatible

Download 1
KatFile.com
Turbobit.net
FileFactory.com
Rapidgator.net
Download 2
KatFile.com
Turbobit.net
FileFactory.com
Rapidgator.net
Download 3
KatFile.com
Turbobit.net
FileFactory.com
Rapidgator.net

Tracklist:

1 Sgt. Pepper's Lonely Hearts Club Band 2:02
2 With A Little Help From My Friends 2:44
3 Lucy In The Sky With Diamonds 3:28
4 Getting Better 2:47
5 Fixing A Hole 2:36
6 She's Leaving Home 3:35
7 Being For The Benefit Of Mr. Kite! 2:37
8 Within You Without You 5:05
9 When I'm Sixty-Four 2:37
10 Lovely Rita 2:42
11 Good Morning Good Morning 2:41
12 Sgt. Pepper's Lonely Hearts Club Band (Reprise) 1:18
13 A Day In The Life 5:33

EAC-Log, CUE-Sheed & NFO:

Click to open spoiler
Exact Audio Copy V1.3 from 2. September 2016

EAC extraction logfile from 8. December 2017, 21:11

The Beatles / Sgt. Pepper’s Lonely Hearts Club Band (CDP 7 46442 2)

Used drive : PLEXTOR DVDR PX-891SA Adapter: 1 ID: 0

Read mode : Secure
Utilize accurate stream : Yes
Defeat audio cache : Yes
Make use of C2 pointers : No

Read offset correction : 6
Overread into Lead-In and Lead-Out : No
Fill up missing offset samples with silence : Yes
Delete leading and trailing silent blocks : No
Null samples used in CRC calculations : Yes
Used interface : Native Win32 interface for Win NT & 2000

Used output format : User Defined Encoder
Selected bitrate : 768 kBit/s
Quality : High
Add ID3 tag : No
Command line compressor : C:\Program Files (x86)\Exact Audio Copy\Flac\flac.exe
Additional command line options : -V -8 -T “Genre=%genre%” -T “Artist=%artist%” -T “Title=%title%” -T “Album=%albumtitle%” -T “Date=%year%” -T “Tracknumber=%tracknr%” -T “Comment=%comment%” %source%

TOC of the extracted CD

Track | Start | Length | Start sector | End sector
———————————————————
1 | 0:00.33 | 2:02.32 | 33 | 9214
2 | 2:02.65 | 2:44.00 | 9215 | 21514
3 | 4:46.65 | 3:28.33 | 21515 | 37147
4 | 8:15.23 | 2:47.65 | 37148 | 49737
5 | 11:03.13 | 2:36.47 | 49738 | 61484
6 | 13:39.60 | 3:35.03 | 61485 | 77612
7 | 17:14.63 | 2:37.07 | 77613 | 89394
8 | 19:51.70 | 5:05.05 | 89395 | 112274
9 | 24:57.00 | 2:37.53 | 112275 | 124102
10 | 27:34.53 | 2:42.07 | 124103 | 136259
11 | 30:16.60 | 2:41.23 | 136260 | 148357
12 | 32:58.08 | 1:18.67 | 148358 | 154274
13 | 34:17.00 | 5:33.68 | 154275 | 179317

Range status and errors

Selected range

Filename H:\dafnaplus\Sgt. Pepper’s Lonely Hearts Club Band\The Beatles – Sgt. Pepper’s Lonely Hearts Club Band (CDP 7 46442 2).wav

Peak level 98.3 %
Extraction speed 7.3 X
Range quality 100.0 %
Test CRC CB2800A1
Copy CRC CB2800A1
Copy OK

No errors occurred

AccurateRip summary

Track 1 accurately ripped (confidence 25) [C376D3D8] (AR v2)
Track 2 accurately ripped (confidence 25) [152109F6] (AR v2)
Track 3 accurately ripped (confidence 25) [0F27AD8B] (AR v2)
Track 4 accurately ripped (confidence 25) [DA4EC70C] (AR v2)
Track 5 accurately ripped (confidence 25) [9BCE4A9C] (AR v2)
Track 6 accurately ripped (confidence 25) [DA51FE96] (AR v2)
Track 7 accurately ripped (confidence 25) [9021DDCE] (AR v2)
Track 8 accurately ripped (confidence 25) [C73C6575] (AR v2)
Track 9 accurately ripped (confidence 25) [1E3FD969] (AR v2)
Track 10 accurately ripped (confidence 25) [06C642CB] (AR v2)
Track 11 accurately ripped (confidence 25) [BAF245DB] (AR v2)
Track 12 accurately ripped (confidence 25) [ED99A191] (AR v2)
Track 13 accurately ripped (confidence 25) [BBC5FB97] (AR v2)

All tracks accurately ripped

End of status report

—- CUETools DB Plugin V2.1.6

[CTDB TOCID: vfP6MWDKl0ollexFdzIzeWGCevI-] found
Submit result: already submitted
Track | CTDB Status
1 | (3193/3313) Accurately ripped
2 | (3199/3313) Accurately ripped
3 | (3218/3313) Accurately ripped
4 | (2500/3313) Accurately ripped, or (676/3313) differs in 1344 samples @02:46:36-02:46:38, or (9/3313) differs in 1344 samples @02:46:36-02:46:38
5 | (2506/3313) Accurately ripped, or (676/3313) differs in 1362 samples @00:43:39-00:43:40, or (9/3313) differs in 1362 samples @00:43:39-00:43:40
6 | (3220/3313) Accurately ripped
7 | (3236/3313) Accurately ripped
8 | (3225/3313) Accurately ripped
9 | (3221/3313) Accurately ripped
10 | (3219/3313) Accurately ripped
11 | (3226/3313) Accurately ripped
12 | (3232/3313) Accurately ripped
13 | (3180/3313) Accurately ripped

==== Log checksum CC00C929F16E4E29C890FFC5A2229538ADFD2861D11910678F6C329F3BBE2C76 ====

REM GENRE Rock
REM DATE 1987
REM DISCID C009560D
REM COMMENT “ExactAudioCopy v1.3”
PERFORMER “The Beatles”
TITLE “Sgt. Pepper’s Lonely Hearts Club Band (CDP 7 46442 2)”
REM COMPOSER “”
FILE “The Beatles – Sgt. Pepper’s Lonely Hearts Club Band (CDP 7 46442 2).flac” WAVE
TRACK 01 AUDIO
TITLE “Sgt. Pepper’s Lonely Hearts Club Band”
PERFORMER “The Beatles”
REM COMPOSER “”
INDEX 00 00:00:00
INDEX 01 00:00:33
TRACK 02 AUDIO
TITLE “With A Little Help From My Friends”
PERFORMER “The Beatles”
REM COMPOSER “”
INDEX 00 02:02:63
INDEX 01 02:02:65
TRACK 03 AUDIO
TITLE “Lucy In The Sky With Diamonds”
PERFORMER “The Beatles”
REM COMPOSER “”
INDEX 00 04:46:63
INDEX 01 04:46:65
TRACK 04 AUDIO
TITLE “Getting Better”
PERFORMER “The Beatles”
REM COMPOSER “”
INDEX 00 08:14:15
INDEX 01 08:15:23
TRACK 05 AUDIO
TITLE “Fixing A Hole”
PERFORMER “The Beatles”
REM COMPOSER “”
INDEX 00 11:03:10
INDEX 01 11:03:13
TRACK 06 AUDIO
TITLE “She’s Leaving Home”
PERFORMER “The Beatles”
REM COMPOSER “”
INDEX 00 13:38:63
INDEX 01 13:39:60
TRACK 07 AUDIO
TITLE “Being For The Benefit Of Mr. Kite!”
PERFORMER “The Beatles”
REM COMPOSER “”
INDEX 00 17:14:60
INDEX 01 17:14:63
TRACK 08 AUDIO
TITLE “Within You Without You”
PERFORMER “The Beatles”
REM COMPOSER “”
INDEX 00 19:51:20
INDEX 01 19:51:70
TRACK 09 AUDIO
TITLE “When I’m Sixty-Four”
PERFORMER “The Beatles”
REM COMPOSER “”
INDEX 00 24:56:73
INDEX 01 24:57:00
TRACK 10 AUDIO
TITLE “Lovely Rita”
PERFORMER “The Beatles”
REM COMPOSER “”
INDEX 00 27:34:50
INDEX 01 27:34:53
TRACK 11 AUDIO
TITLE “Good Morning Good Morning”
PERFORMER “The Beatles”
REM COMPOSER “”
INDEX 00 30:16:58
INDEX 01 30:16:60
TRACK 12 AUDIO
TITLE “Sgt. Pepper’s Lonely Hearts Club Band (Reprise)”
PERFORMER “The Beatles”
REM COMPOSER “”
INDEX 00 32:58:05
INDEX 01 32:58:08
TRACK 13 AUDIO
TITLE “A Day In The Life”
PERFORMER “The Beatles”
REM COMPOSER “”
INDEX 00 34:16:73
INDEX 01 34:17:00


Spread the Download

Leave a Reply

Your email address will not be published. Required fields are marked *

Enter the text from the image below
 

This site uses Akismet to reduce spam. Learn how your comment data is processed.