The Beatles – Sgt. Pepper’s Lonely Hearts Club Band (4 CD) (Remastered)




Artist: The Beatles
Year: 2017
Genre: Rock
Notes: Discogs
Add. Notes: Remastered
Cover incl.: Yes
Encoder: FLAC
Bitrate: ~800 kBit/s (44.1 kHz/16 Bit/s)
Log & Cue incl.: Yes
Size: 1220 MB
Password: “slam” (without ” “)


All Downloads/Hosters are compatible

Download 1
KatFile.com
Rapidgator.net
Turbobit.net
FileFactory.com
Download 2
KatFile.com
Rapidgator.net
Turbobit.net
FileFactory.com

Tracklist:

New Stereo Mix
CD1-1 - Sgt. Pepper's Lonely Hearts 
Club Band - 2:02
CD1-2 - With A Little Help From My 
Friends - 2:45
CD1-3 - Lucy In The Sky With 
Diamonds - 3:27
CD1-4 - Getting Better - 2:47
CD1-5 - Fixing A Hole - 2:37
CD1-6 - She's Leaving Home - 3:25
CD1-7 - Being For The Benefit Of Mr. 
Kite! - 2:39
CD1-8 - Within You Without You - 
5:07
CD1-9 - When I'm Sixty-Four - 2:40
CD1-10 - Lovely Rita - 2:45
CD1-11 - Good Morning Good 
Morning - 2:34
CD1-12 - Sgt. Pepper's Lonely Hearts 
Club Band 
(Reprise) - 1:20
CD1-13 - A Day In The Life - 5:33

Sgt. Pepper Sessions
CD2-1 - Strawberry Fields Forever 
(Take 1) - 2:39
CD2-2 - Strawberry Fields Forever 
(Take 4) - 3:00
CD2-3 - Strawberry Fields Forever 
(Take 7) - 3:16
CD2-4 - Strawberry Fields Forever 
(Take 26) - 3:18
CD2-5 - Strawberry Fields Forever 
(Stereo Mix - 2015) - 
4:09
CD2-6 - When I'm Sixty-Four (Take 
2) - 3:01
CD2-7 - Penny Lane (Take 6 - 
Instrumental) - 2:55
CD2-8 - Penny Lane (Vocal Overdubs 
And Speech) - 1:47
CD2-9 - Penny Lane (Stereo Mix - 
2017) - 3:00
CD2-10 - A Day In The Life (Take 1) - 
4:41
CD2-11 - A Day In The Life (Take 2) - 
4:49
CD2-12 - A Day In The Life 
(Orchestra Overdub) - 0:55
CD2-13 - A Day In The Life (Hummed 
Last Chord) (Takes 
8, 9, 10 & 11) - 1:54
CD2-14 - A Day In The Life (The Last 
Chord) - 2:53
CD2-15 - Sgt. Pepper's Lonely Hearts 
Club Band (Take 1 - 
Instrumental) - 2:34
CD2-16 - Sgt. Pepper's Lonely Hearts 
Club Band (Take 9 
And Speech) - 2:36
CD2-17 - Good Morning Good 
Morning (Take 1 - 
Instrumental, Breakdown) - 1:04
CD2-18 - Good Morning Good 
Morning (Take 8) - 2:47

Sgt. Pepper Sessions
CD3-1 - Fixing A Hole (Take 1) - 2:59
CD3-2 - Fixing A Hole (Speech And 
Take 3) - 3:28
CD3-3 - Being For The Benefit Of Mr. 
Kite! (Speech From 
Before Take 1; Take 4 And Speech 
At The End) - 3:08
CD3-4 - Being For The Benefit Of Mr. 
Kite! (Take 7) - 2:35
CD3-5 - Lovely Rita (Speech And 
Take 9) - 3:05
CD3-6 - Lucy In The Sky With 
Diamonds (Take 1) - 3:40
CD3-7 - Lucy In The Sky With 
Diamonds (Speech, False 
Start And Take 5) - 4:08
CD3-8 - Getting Better (Take 1 And 
Speech At The End) - 
2:19
CD3-9 - Getting Better (Take 12) - 
2:45
CD3-10 - Within You Without You 
(Take 1 - Indian 
Instruments) - 5:32
CD3-11 - Within You Without You 
(George Coaching The 
Musicians) - 3:55
CD3-12 - She's Leaving Home (Take 
1 - Instrumental) - 
3:49
CD3-13 - She's Leaving Home (Take 
6 - Instrumental) - 
3:48
CD3-14 - With A Little Help From My 
Friends (Take 1 - 
False Start And Take 2 - 
Instrumental) - 3:14
CD3-15 - Sgt. Pepper's Lonely Hearts 
Club Band (Reprise) 
(Speech And Take 8) - 1:59

Mono Album (1967 Mix) And Bonus 
Tracks
CD4-1 - Sgt. Pepper's Lonely Hearts 
Club Band - 2:02
CD4-2 - With A Little Help From My 
Friends - 2:45
CD4-3 - Lucy In The Sky With 
Diamonds - 3:27
CD4-4 - Getting Better - 2:47
CD4-5 - Fixing A Hole - 2:37
CD4-6 - She's Leaving Home - 3:25
CD4-7 - Being For The Benefit Of Mr. 
Kite! - 2:40
CD4-8 - Within You Without You - 
5:07
CD4-9 - When I'm Sixty-Four - 2:40
CD4-10 - Lovely Rita - 2:45
CD4-11 - Good Morning Good 
Morning - 2:34
CD4-12 - Sgt. Pepper's Lonely Hearts 
Club Band 
(Reprise) - 1:18
CD4-13 - A Day In The Life - 5:23
CD4-14 - Strawberry Fields Forever 
(Original Mono Mix) - 
4:08
CD4-15 - Penny Lane (Original Mono 
Mix) - 3:02
CD4-16 - A Day In The Life (First 
Mono Mix) - 4:43
CD4-17 - Lucy In The Sky With 
Diamonds (Original Mono 
Mix -No. 11) - 3:49
CD4-18 - She's Leaving Home (First 
Mono Mix) - 3:42
CD4-19 - Penny Lane (Capitol 
Records Mono US Promo 
Mix) - 3:01

EAC-Log, CUE-Sheed & NFO:

Click to open spoiler
REM GENRE Rock
REM DATE 1967
REM DISCID DC0BD40F
REM COMMENT “ExactAudioCopy v1.1”
PERFORMER “The Beatles”
TITLE “Sgt. Pepper CD3”
FILE “The Beatles – Sgt. Pepper CD3.flac” WAVE
TRACK 01 AUDIO
TITLE “Fixing A Hole (Take 1)”
PERFORMER “The Beatles”
INDEX 01 00:00:00
TRACK 02 AUDIO
TITLE “Fixing A Hole (Speech And Take 3)”
PERFORMER “The Beatles”
INDEX 01 02:59:27
TRACK 03 AUDIO
TITLE “Being For The Benefit Of Mr. Kite! (Speech From Before Take 1)”
PERFORMER “The Beatles”
INDEX 01 06:27:42
TRACK 04 AUDIO
TITLE “Being For The Benefit Of Mr. Kite! (Take 7)”
PERFORMER “The Beatles”
INDEX 01 09:35:66
TRACK 05 AUDIO
TITLE “Lovely Rita (Speech And Take 9)”
PERFORMER “The Beatles”
INDEX 01 12:11:06Exact Audio Copy V1.1 from 23. June 2015

EAC extraction logfile from 16. June 2017, 17:30

The Beatles / Sgt. Pepper CD1

Used drive : PLEXTOR BD-R PX-B950SA Adapter: 1 ID: 1

Read mode : Secure
Utilize accurate stream : Yes
Defeat audio cache : Yes
Make use of C2 pointers : No

Read offset correction : 6
Overread into Lead-In and Lead-Out : No
Fill up missing offset samples with silence : Yes
Delete leading and trailing silent blocks : No
Null samples used in CRC calculations : Yes
Used interface : Native Win32 interface for Win NT & 2000

Used output format : Internal WAV Routines
Sample format : 44.100 Hz; 16 Bit; Stereo

TOC of the extracted CD

Track | Start | Length | Start sector | End sector
———————————————————
1 | 0:00.00 | 2:02.73 | 0 | 9222
2 | 2:02.73 | 2:45.22 | 9223 | 21619
3 | 4:48.20 | 3:27.51 | 21620 | 37195
4 | 8:15.71 | 2:47.01 | 37196 | 49721
5 | 11:02.72 | 2:37.72 | 49722 | 61568
6 | 13:40.69 | 3:25.63 | 61569 | 77006
7 | 17:06.57 | 2:39.15 | 77007 | 88946
8 | 19:45.72 | 5:07.44 | 88947 | 112015
9 | 24:53.41 | 2:40.01 | 112016 | 124016
10 | 27:33.42 | 2:45.60 | 124017 | 136451
11 | 30:19.27 | 2:34.35 | 136452 | 148036
12 | 32:53.62 | 1:20.45 | 148037 | 154081
13 | 34:14.32 | 5:33.05 | 154082 | 179061

Range status and errors

Selected range

Filename C:\Users\Meijin\Desktop\Lossless Galaxy ALLexxess\The Beatles\1967 Sgt. Pepper (6 Discs Box Set Apple Records 2017)\CD1 New Stereo Remix\The Beatles – Sgt. Pepper CD1.wav

Peak level 98.5 %
Extraction speed 3.1 X
Range quality 100.0 %
Test CRC 418C5E13
Copy CRC 418C5E13
Copy OK

No errors occurred

AccurateRip summary

Track 1 not present in database
Track 2 not present in database
Track 3 not present in database
Track 4 not present in database
Track 5 not present in database
Track 6 not present in database
Track 7 not present in database
Track 8 not present in database
Track 9 not present in database
Track 10 not present in database
Track 11 not present in database
Track 12 not present in database
Track 13 not present in database

None of the tracks are present in the AccurateRip database

End of status report

—- CUETools DB Plugin V2.1.6

[CTDB TOCID: 9E3_IEbQwEiXlkew0p5GJ82WuSU-] found
Submit result: 9E3_IEbQwEiXlkew0p5GJ82WuSU- has been confirmed
Track | CTDB Status
1 | (772/775) Accurately ripped
2 | (772/775) Accurately ripped
3 | (771/775) Accurately ripped
4 | (772/775) Accurately ripped
5 | (772/775) Accurately ripped
6 | (772/775) Accurately ripped
7 | (772/775) Accurately ripped
8 | (769/775) Accurately ripped
9 | (771/775) Accurately ripped
10 | (771/775) Accurately ripped
11 | (771/775) Accurately ripped
12 | (771/775) Accurately ripped
13 | (769/775) Accurately ripped

==== Log checksum C29F5D4EAA816A1E38EF772B414A73C6DB057844EF55EBE45E4A2039182F84A6 ====

Exact Audio Copy V1.1 from 23. June 2015

EAC extraction logfile from 16. June 2017, 12:50

The Beatles / Sgt. Pepper CD2

Used drive : PLEXTOR BD-R PX-B950SA Adapter: 1 ID: 1

Read mode : Secure
Utilize accurate stream : Yes
Defeat audio cache : Yes
Make use of C2 pointers : No

Read offset correction : 6
Overread into Lead-In and Lead-Out : No
Fill up missing offset samples with silence : Yes
Delete leading and trailing silent blocks : No
Null samples used in CRC calculations : Yes
Used interface : Native Win32 interface for Win NT & 2000

Used output format : Internal WAV Routines
Sample format : 44.100 Hz; 16 Bit; Stereo

TOC of the extracted CD

Track | Start | Length | Start sector | End sector
———————————————————
1 | 0:00.00 | 2:39.59 | 0 | 11983
2 | 2:39.59 | 3:00.09 | 11984 | 25492
3 | 5:39.68 | 3:16.56 | 25493 | 40248
4 | 8:56.49 | 3:18.64 | 40249 | 55162
5 | 12:15.38 | 4:09.69 | 55163 | 73906
6 | 16:25.32 | 3:01.12 | 73907 | 87493
7 | 19:26.44 | 2:55.41 | 87494 | 100659
8 | 22:22.10 | 1:47.07 | 100660 | 108691
9 | 24:09.17 | 3:00.52 | 108692 | 122243
10 | 27:09.69 | 4:41.37 | 122244 | 143355
11 | 31:51.31 | 4:49.09 | 143356 | 165039
12 | 36:40.40 | 0:55.59 | 165040 | 169223
13 | 37:36.24 | 1:54.42 | 169224 | 177815
14 | 39:30.66 | 2:53.07 | 177816 | 190797
15 | 42:23.73 | 2:34.09 | 190798 | 202356
16 | 44:58.07 | 2:36.54 | 202357 | 214110
17 | 47:34.61 | 1:04.32 | 214111 | 218942
18 | 48:39.18 | 2:47.23 | 218943 | 231490

Range status and errors

Selected range

Filename C:\Users\Meijin\Desktop\Lossless Galaxy ALLexxess\The Beatles\1967 Sgt. Pepper (6 Discs Box Set Apple Records 2017)\CD2 Sgt. Pepper Sessions\The Beatles – Sgt. Pepper CD2.wav

Peak level 100.0 %
Extraction speed 3.3 X
Range quality 100.0 %
Test CRC 3A4FB193
Copy CRC 3A4FB193
Copy OK

No errors occurred

AccurateRip summary

Track 1 not present in database
Track 2 not present in database
Track 3 not present in database
Track 4 not present in database
Track 5 not present in database
Track 6 not present in database
Track 7 not present in database
Track 8 not present in database
Track 9 not present in database
Track 10 not present in database
Track 11 not present in database
Track 12 not present in database
Track 13 not present in database
Track 14 not present in database
Track 15 not present in database
Track 16 not present in database
Track 17 not present in database
Track 18 not present in database

None of the tracks are present in the AccurateRip database

End of status report

—- CUETools DB Plugin V2.1.6

[CTDB TOCID: IjOtBfJyrWoKYFEQgjx5wC9MUdk-] found
Submit result: IjOtBfJyrWoKYFEQgjx5wC9MUdk- has been confirmed
Track | CTDB Status
1 | (336/337) Accurately ripped
2 | (336/337) Accurately ripped
3 | (336/337) Accurately ripped
4 | (336/337) Accurately ripped
5 | (336/337) Accurately ripped
6 | (336/337) Accurately ripped
7 | (336/337) Accurately ripped
8 | (336/337) Accurately ripped
9 | (336/337) Accurately ripped
10 | (336/337) Accurately ripped
11 | (335/337) Accurately ripped
12 | (335/337) Accurately ripped
13 | (335/337) Accurately ripped
14 | (334/337) Accurately ripped
15 | (335/337) Accurately ripped
16 | (336/337) Accurately ripped
17 | (336/337) Accurately ripped
18 | (334/337) Accurately ripped

==== Log checksum 417EA83EF5ED98F43BBEECEF9CFD720C21F2F4BDF28DB6C9CD5B8DED57A91A8A ====

Exact Audio Copy V1.1 from 23. June 2015

EAC extraction logfile from 16. June 2017, 9:35

The Beatles / Sgt. Pepper CD3

Used drive : PLEXTOR BD-R PX-B950SA Adapter: 1 ID: 1

Read mode : Secure
Utilize accurate stream : Yes
Defeat audio cache : Yes
Make use of C2 pointers : No

Read offset correction : 6
Overread into Lead-In and Lead-Out : No
Fill up missing offset samples with silence : Yes
Delete leading and trailing silent blocks : No
Null samples used in CRC calculations : Yes
Used interface : Native Win32 interface for Win NT & 2000

Used output format : Internal WAV Routines
Sample format : 44.100 Hz; 16 Bit; Stereo

TOC of the extracted CD

Track | Start | Length | Start sector | End sector
———————————————————
1 | 0:00.00 | 2:59.27 | 0 | 13451
2 | 2:59.27 | 3:28.15 | 13452 | 29066
3 | 6:27.42 | 3:08.24 | 29067 | 43190
4 | 9:35.66 | 2:35.15 | 43191 | 54830
5 | 12:11.06 | 3:05.01 | 54831 | 68706
6 | 15:16.07 | 3:40.24 | 68707 | 85230
7 | 18:56.31 | 4:08.36 | 85231 | 103866
8 | 23:04.67 | 2:19.15 | 103867 | 114306
9 | 25:24.07 | 2:45.04 | 114307 | 126685
10 | 28:09.11 | 5:32.42 | 126686 | 151627
11 | 33:41.53 | 3:55.50 | 151628 | 169302
12 | 37:37.28 | 3:49.11 | 169303 | 186488
13 | 41:26.39 | 3:48.19 | 186489 | 203607
14 | 45:14.58 | 3:14.73 | 203608 | 218230
15 | 48:29.56 | 1:59.12 | 218231 | 227167

Range status and errors

Selected range

Filename C:\Users\Meijin\Desktop\Lossless Galaxy ALLexxess\The Beatles\1967 Sgt. Pepper (6 Discs Box Set Apple Records 2017)\CD3 Sgt. Pepper Sessions\The Beatles – Sgt. Pepper CD3.wav

Peak level 100.0 %
Extraction speed 7.1 X
Range quality 100.0 %
Test CRC DF599FED
Copy CRC DF599FED
Copy OK

No errors occurred

AccurateRip summary

Track 1 not present in database
Track 2 not present in database
Track 3 not present in database
Track 4 not present in database
Track 5 not present in database
Track 6 not present in database
Track 7 not present in database
Track 8 not present in database
Track 9 not present in database
Track 10 not present in database
Track 11 not present in database
Track 12 not present in database
Track 13 not present in database
Track 14 not present in database
Track 15 not present in database

None of the tracks are present in the AccurateRip database

End of status report

—- CUETools DB Plugin V2.1.6

[CTDB TOCID: VFZYTDTwqXfsYHrgZYDt5Rg12HM-] found
Submit result: VFZYTDTwqXfsYHrgZYDt5Rg12HM- has been confirmed
Track | CTDB Status
1 | (336/337) Accurately ripped
2 | (336/337) Accurately ripped
3 | (336/337) Accurately ripped
4 | (336/337) Accurately ripped
5 | (336/337) Accurately ripped
6 | (336/337) Accurately ripped
7 | (336/337) Accurately ripped
8 | (336/337) Accurately ripped
9 | (336/337) Accurately ripped
10 | (336/337) Accurately ripped
11 | (336/337) Accurately ripped
12 | (336/337) Accurately ripped
13 | (336/337) Accurately ripped
14 | (336/337) Accurately ripped
15 | (336/337) Accurately ripped

==== Log checksum 49978403EA7FEE2927384599CBA06C1C31C8618CAAD9E085F61E6495189DC0F0 ====

Exact Audio Copy V1.1 from 23. June 2015

EAC extraction logfile from 16. June 2017, 4:57

The Beatles / Sgt. Pepper CD4

Used drive : PLEXTOR BD-R PX-B950SA Adapter: 1 ID: 1

Read mode : Secure
Utilize accurate stream : Yes
Defeat audio cache : Yes
Make use of C2 pointers : No

Read offset correction : 6
Overread into Lead-In and Lead-Out : No
Fill up missing offset samples with silence : Yes
Delete leading and trailing silent blocks : No
Null samples used in CRC calculations : Yes
Used interface : Native Win32 interface for Win NT & 2000

Used output format : Internal WAV Routines
Sample format : 44.100 Hz; 16 Bit; Stereo

TOC of the extracted CD

Track | Start | Length | Start sector | End sector
———————————————————
1 | 0:00.00 | 2:02.28 | 0 | 9177
2 | 2:02.28 | 2:45.12 | 9178 | 21564
3 | 4:47.40 | 3:27.25 | 21565 | 37114
4 | 8:14.65 | 2:47.19 | 37115 | 49658
5 | 11:02.09 | 2:37.39 | 49659 | 61472
6 | 13:39.48 | 3:25.35 | 61473 | 76882
7 | 17:05.08 | 2:40.70 | 76883 | 88952
8 | 19:46.03 | 5:07.32 | 88953 | 112009
9 | 24:53.35 | 2:40.06 | 112010 | 124015
10 | 27:33.41 | 2:45.46 | 124016 | 136436
11 | 30:19.12 | 2:34.15 | 136437 | 148001
12 | 32:53.27 | 1:18.43 | 148002 | 153894
13 | 34:11.70 | 5:23.02 | 153895 | 178121
14 | 39:34.72 | 4:08.65 | 178122 | 196786
15 | 43:43.62 | 3:02.04 | 196787 | 210440
16 | 46:45.66 | 4:43.08 | 210441 | 231673
17 | 51:28.74 | 3:49.62 | 231674 | 248910
18 | 55:18.61 | 3:42.23 | 248911 | 265583
19 | 59:01.09 | 3:01.26 | 265584 | 279184

Range status and errors

Selected range

Filename C:\Users\Meijin\Desktop\Lossless Galaxy ALLexxess\The Beatles\1967 Sgt. Pepper (6 Discs Box Set Apple Records 2017)\CD4 Sgt. Pepper In Mono\The Beatles – Sgt. Pepper CD4.wav

Peak level 81.4 %
Extraction speed 6.0 X
Range quality 100.0 %
Test CRC B4487015
Copy CRC B4487015
Copy OK

No errors occurred

AccurateRip summary

Track 1 not present in database
Track 2 not present in database
Track 3 not present in database
Track 4 not present in database
Track 5 not present in database
Track 6 not present in database
Track 7 not present in database
Track 8 not present in database
Track 9 not present in database
Track 10 not present in database
Track 11 not present in database
Track 12 not present in database
Track 13 not present in database
Track 14 not present in database
Track 15 not present in database
Track 16 not present in database
Track 17 not present in database
Track 18 not present in database
Track 19 not present in database

None of the tracks are present in the AccurateRip database

End of status report

—- CUETools DB Plugin V2.1.6

[CTDB TOCID: zeuv_z3whrQQ_BsGLdHFXXQpcks-] found
Submit result: zeuv_z3whrQQ_BsGLdHFXXQpcks- has been confirmed
Track | CTDB Status
1 | (317/319) Accurately ripped
2 | (316/319) Accurately ripped
3 | (317/319) Accurately ripped
4 | (317/319) Accurately ripped
5 | (317/319) Accurately ripped
6 | (317/319) Accurately ripped
7 | (317/319) Accurately ripped
8 | (317/319) Accurately ripped
9 | (317/319) Accurately ripped
10 | (317/319) Accurately ripped
11 | (317/319) Accurately ripped
12 | (317/319) Accurately ripped
13 | (316/319) Accurately ripped
14 | (317/319) Accurately ripped
15 | (316/319) Accurately ripped
16 | (317/319) Accurately ripped
17 | (317/319) Accurately ripped
18 | (317/319) Accurately ripped
19 | (317/319) Accurately ripped

==== Log checksum 15E00922CEEA02230E48ABE6A8597ADA8E29C9D2011DBB35B22C403CC7EBFED0 ====

REM GENRE Rock
REM DATE 1967
REM DISCID B309530D
REM COMMENT “ExactAudioCopy v1.1”
PERFORMER “The Beatles”
TITLE “Sgt. Pepper CD1”
FILE “The Beatles – Sgt. Pepper CD1.flac” WAVE
TRACK 01 AUDIO
TITLE “Sgt. Pepper’s Lonely Hearts Club Band”
PERFORMER “The Beatles”
INDEX 01 00:00:00
TRACK 02 AUDIO
TITLE “With A Little Help From My Friends”
PERFORMER “The Beatles”
INDEX 01 02:02:73
TRACK 03 AUDIO
TITLE “Lucy In The Sky With Diamonds”
PERFORMER “The Beatles”
INDEX 01 04:48:20
TRACK 04 AUDIO
TITLE “Getting Better”
PERFORMER “The Beatles”
INDEX 01 08:15:71
TRACK 05 AUDIO
TITLE “Fixing A Hole”
PERFORMER “The Beatles”
INDEX 01 11:02:72
TRACK 06 AUDIO
TITLE “She’s Leaving Home”
PERFORMER “The Beatles”
INDEX 01 13:40:69
TRACK 07 AUDIO
TITLE “Being For The Benefit Of Mr. Kite!”
PERFORMER “The Beatles”
INDEX 01 17:06:57
TRACK 08 AUDIO
TITLE “Within You Without You”
PERFORMER “The Beatles”
INDEX 01 19:45:72
TRACK 09 AUDIO
TITLE “When I’m Sixty-Four”
PERFORMER “The Beatles”
INDEX 01 24:53:41
TRACK 10 AUDIO
TITLE “Lovely Rita”
PERFORMER “The Beatles”
INDEX 01 27:33:42
TRACK 11 AUDIO
TITLE “Good Morning Good Morning”
PERFORMER “The Beatles”
INDEX 01 30:19:27
TRACK 12 AUDIO
TITLE “Sgt. Pepper’s Lonely Hearts Club Band (Reprise)”
PERFORMER “The Beatles”
INDEX 01 32:53:62
TRACK 13 AUDIO
TITLE “A Day In The Life”
PERFORMER “The Beatles”
INDEX 01 34:14:32

REM GENRE Rock
REM DATE 1967
REM DISCID EC0C0E12
REM COMMENT “ExactAudioCopy v1.1”
PERFORMER “The Beatles”
TITLE “Sgt. Pepper CD2”
FILE “The Beatles – Sgt. Pepper CD2.flac” WAVE
TRACK 01 AUDIO
TITLE “Strawberry Fields Forever (Take 1)”
PERFORMER “The Beatles”
INDEX 01 00:00:00
TRACK 02 AUDIO
TITLE “Strawberry Fields Forever (Take 4)”
PERFORMER “The Beatles”
INDEX 01 02:39:59
TRACK 03 AUDIO
TITLE “Strawberry Fields Forever (Take 7)”
PERFORMER “The Beatles”
INDEX 01 05:39:68
TRACK 04 AUDIO
TITLE “Strawberry Fields Forever (Take 26)”
PERFORMER “The Beatles”
INDEX 01 08:56:49
TRACK 05 AUDIO
TITLE “Strawberry Fields Forever (Stereo / Giles Martin Mix 2015)”
PERFORMER “The Beatles”
INDEX 01 12:15:38
TRACK 06 AUDIO
TITLE “When I’m Sixty-Four (Take 2)”
PERFORMER “The Beatles”
INDEX 01 16:25:32
TRACK 07 AUDIO
TITLE “Penny Lane (Take 6 / Instrumental)”
PERFORMER “The Beatles”
INDEX 01 19:26:44
TRACK 08 AUDIO
TITLE “Penny Lane (Vocal Overdubs And Speech)”
PERFORMER “The Beatles”
INDEX 01 22:22:10
TRACK 09 AUDIO
TITLE “Penny Lane (Stereo / Giles Martin Mix 2017)”
PERFORMER “The Beatles”
INDEX 01 24:09:17
TRACK 10 AUDIO
TITLE “A Day In The Life (Take 1)”
PERFORMER “The Beatles”
INDEX 01 27:09:69
TRACK 11 AUDIO
TITLE “A Day In The Life (Take 2)”
PERFORMER “The Beatles”
INDEX 01 31:51:31
TRACK 12 AUDIO
TITLE “A Day in the Life (Orchestra Overdub)”
PERFORMER “The Beatles”
INDEX 01 36:40:40
TRACK 13 AUDIO
TITLE “A Day In The Life (Hummed Last Chord Takes 8,9,10,11)”
PERFORMER “The Beatles”
INDEX 01 37:36:24
TRACK 14 AUDIO
TITLE “A Day In The Life (The Last Chord)”
PERFORMER “The Beatles”
INDEX 01 39:30:66
TRACK 15 AUDIO
TITLE “Sgt. Pepper’s Lonely Hearts Club Band (Take 1 – Inst)”
PERFORMER “The Beatles”
INDEX 01 42:23:73
TRACK 16 AUDIO
TITLE “Sgt. Pepper’s Lonely Hearts Club Band (Take 9 / Speech)”
PERFORMER “The Beatles”
INDEX 01 44:58:07
TRACK 17 AUDIO
TITLE “Good Morning Good Morning (Take 1 / Instrumental)”
PERFORMER “The Beatles”
INDEX 01 47:34:61
TRACK 18 AUDIO
TITLE “Good Morning Good Morning (Take 8)”
PERFORMER “The Beatles”
INDEX 01 48:39:18

TRACK 06 AUDIO
TITLE “Lucy In The Sky With Diamonds (Take 1 And Speech At The End)”
PERFORMER “The Beatles”
INDEX 01 15:16:07
TRACK 07 AUDIO
TITLE “Lucy In The Sky With Diamonds (Speech, False Start And Take 5)”
PERFORMER “The Beatles”
INDEX 01 18:56:31
TRACK 08 AUDIO
TITLE “Getting Better (Take 1 / Instrumental And Speech At The End)”
PERFORMER “The Beatles”
INDEX 00 23:02:68
INDEX 01 23:04:67
TRACK 09 AUDIO
TITLE “Getting Better (Take 12)”
PERFORMER “The Beatles”
INDEX 01 25:24:07
TRACK 10 AUDIO
TITLE “Within You Without You (Take 1 / Indian Instruments)”
PERFORMER “The Beatles”
INDEX 01 28:09:11
TRACK 11 AUDIO
TITLE “Within You Without You (George Coaching The Musicians)”
PERFORMER “The Beatles”
INDEX 01 33:41:53
TRACK 12 AUDIO
TITLE “She’s Leaving Home (Take 1 / Instrumental)”
PERFORMER “The Beatles”
INDEX 00 37:36:53
INDEX 01 37:37:28
TRACK 13 AUDIO
TITLE “She’s Leaving Home (Take 6 / Instrumental)”
PERFORMER “The Beatles”
INDEX 01 41:26:39
TRACK 14 AUDIO
TITLE “With A Little Help From My Friends (Take 1 / False Start And Take 2 / Instrum…”
PERFORMER “The Beatles”
INDEX 01 45:14:58
TRACK 15 AUDIO
TITLE “Sgt. Peppers Lonely Hearts Club Band / Reprise (Speech And Take 8)”
PERFORMER “The Beatles”
INDEX 01 48:29:56

REM GENRE Rock
REM DATE 1967
REM DISCID 0C0E8A13
REM COMMENT “ExactAudioCopy v1.1”
PERFORMER “The Beatles”
TITLE “Sgt. Pepper CD4”
FILE “The Beatles – Sgt. Pepper CD4.flac” WAVE
TRACK 01 AUDIO
TITLE “Sgt. Pepper’s Lonely Hearts Club Band”
PERFORMER “The Beatles”
INDEX 01 00:00:00
TRACK 02 AUDIO
TITLE “With A Little Help From My Friends”
PERFORMER “The Beatles”
INDEX 01 02:02:28
TRACK 03 AUDIO
TITLE “Lucy In The Sky With Diamonds”
PERFORMER “The Beatles”
INDEX 01 04:47:40
TRACK 04 AUDIO
TITLE “Getting Better”
PERFORMER “The Beatles”
INDEX 01 08:14:65
TRACK 05 AUDIO
TITLE “Fixing A Hole”
PERFORMER “The Beatles”
INDEX 01 11:02:09
TRACK 06 AUDIO
TITLE “She’s Leaving Home”
PERFORMER “The Beatles”
INDEX 01 13:39:48
TRACK 07 AUDIO
TITLE “Being For The Benefit Of Mr. Kite!”
PERFORMER “The Beatles”
INDEX 01 17:05:08
TRACK 08 AUDIO
TITLE “Within You Without You”
PERFORMER “The Beatles”
INDEX 00 19:42:08
INDEX 01 19:46:03
TRACK 09 AUDIO
TITLE “When I’m Sixty-Four”
PERFORMER “The Beatles”
INDEX 01 24:53:35
TRACK 10 AUDIO
TITLE “Lovely Rita”
PERFORMER “The Beatles”
INDEX 01 27:33:41
TRACK 11 AUDIO
TITLE “Good Morning Good Morning”
PERFORMER “The Beatles”
INDEX 01 30:19:12
TRACK 12 AUDIO
TITLE “Sgt. Pepper’s Lonely Hearts Club Band (Reprise)”
PERFORMER “The Beatles”
INDEX 01 32:53:27
TRACK 13 AUDIO
TITLE “A Day In The Life”
PERFORMER “The Beatles”
INDEX 01 34:11:70
TRACK 14 AUDIO
TITLE “Strawberry Fields Forever (Original Mono Mix)”
PERFORMER “The Beatles”
INDEX 00 39:30:14
INDEX 01 39:34:72
TRACK 15 AUDIO
TITLE “Penny Lane (Original Mono Mix)”
PERFORMER “The Beatles”
INDEX 00 43:41:66
INDEX 01 43:43:62
TRACK 16 AUDIO
TITLE “A Day In The Life (First Mono Mix)”
PERFORMER “The Beatles”
INDEX 00 46:42:49
INDEX 01 46:45:66
TRACK 17 AUDIO
TITLE “Lucy In The Sky With Diamonds (Original Mono Mix – No. 11)”
PERFORMER “The Beatles”
INDEX 00 51:26:21
INDEX 01 51:28:74
TRACK 18 AUDIO
TITLE “She’s Leaving Home (First Mono Mix)”
PERFORMER “The Beatles”
INDEX 00 55:16:68
INDEX 01 55:18:61
TRACK 19 AUDIO
TITLE “Penny Lane (Capitol Records Mono US Promo Mix)”
PERFORMER “The Beatles”
INDEX 00 58:56:41
INDEX 01 59:01:09


Leave a Reply

Your email address will not be published. Required fields are marked *

Enter the text from the image below
 

This site uses Akismet to reduce spam. Learn how your comment data is processed.