The Beatles – Rubber Soul




No Cover available

Artist: The Beatles
Year: 1965/1992
Genre: Rock
Notes: Discogs
Add. Notes:
Watch Songs on: YouTube
Cover incl.: Yes
Encoder: FLAC
Bitrate: ~800 kBit/s (44.1 kHz/16 Bit/s)
Log & Cue incl.: Yes/Yes
Size: 276,7 MB
Password: “slam” (without ” “)


All Downloads/Hosters are compatible

Download 1
KatFile.com
Turbobit.net
Rapidgator.net
FileFactory.com
Download 2
KatFile.com
Turbobit.net
Rapidgator.net
FileFactory.com

Tracklist:

1 Drive My Car 2:30
2 Norwegian Wood (The Bird Has Flown) 2:05
3 You Won't See Me 3:22
4 Nowhere Man 2:44
5 Think For Yourself 2:19
6 The Word 2:43
7 Michelle 2:42
8 What Goes On 2:50
9 Girl 2:33
10 I'm Looking Through You 2:27
11 In My Life 2:27
12 Wait 2:16
13 If I Needed Someone 2:23
14 Run For Your Life 2:18

EAC-Log, CUE-Sheed & NFO:

Click to open spoiler
Exact Audio Copy V1.1 from 23. June 2015

EAC extraction logfile from 25. April 2017, 11:06

The Beatles / Rubber Soul (C2 46440)

Used drive : PLEXTOR CD-R PX-240A Adapter: 4 ID: 0

Read mode : Secure
Utilize accurate stream : Yes
Defeat audio cache : Yes
Make use of C2 pointers : No

Read offset correction : 6
Overread into Lead-In and Lead-Out : No
Fill up missing offset samples with silence : Yes
Delete leading and trailing silent blocks : No
Null samples used in CRC calculations : Yes
Used interface : Installed external ASPI interface

Used output format : Internal WAV Routines
Sample format : 44.100 Hz; 16 Bit; Stereo

TOC of the extracted CD

Track | Start | Length | Start sector | End sector
———————————————————
1 | 0:00.32 | 2:31.33 | 32 | 11389
2 | 2:31.65 | 2:07.20 | 11390 | 20934
3 | 4:39.10 | 3:23.45 | 20935 | 36204
4 | 8:02.55 | 2:45.67 | 36205 | 48646
5 | 10:48.47 | 2:20.38 | 48647 | 59184
6 | 13:09.10 | 2:46.42 | 59185 | 71676
7 | 15:55.52 | 2:45.10 | 71677 | 84061
8 | 18:40.62 | 2:49.68 | 84062 | 96804
9 | 21:30.55 | 2:32.32 | 96805 | 108236
10 | 24:03.12 | 2:28.15 | 108237 | 119351
11 | 26:31.27 | 2:29.03 | 119352 | 130529
12 | 29:00.30 | 2:16.52 | 130530 | 140781
13 | 31:17.07 | 2:24.23 | 140782 | 151604
14 | 33:41.30 | 2:19.72 | 151605 | 162101

Range status and errors

Selected range

Filename Z:\data\hexonut\Seeding\The Beatles-1965-Rubber Soul [Parlophone, Canada, C2 46440]\Rubber Soul (C2 46440).wav

Peak level 90.1 %
Extraction speed 6.2 X
Range quality 100.0 %
Test CRC D924535B
Copy CRC D924535B
Copy OK

No errors occurred

AccurateRip summary

Track 1 accurately ripped (confidence 5) [DE9CA350] (AR v2)
Track 2 accurately ripped (confidence 5) [9FDBAD13] (AR v2)
Track 3 accurately ripped (confidence 5) [D6162FFB] (AR v2)
Track 4 accurately ripped (confidence 5) [4E7B2698] (AR v2)
Track 5 accurately ripped (confidence 5) [5DA19944] (AR v2)
Track 6 accurately ripped (confidence 5) [D1C40AFE] (AR v2)
Track 7 accurately ripped (confidence 5) [70D1CF97] (AR v2)
Track 8 accurately ripped (confidence 6) [C3021CC2] (AR v2)
Track 9 accurately ripped (confidence 6) [70A39E0C] (AR v2)
Track 10 accurately ripped (confidence 5) [A1F6B985] (AR v2)
Track 11 accurately ripped (confidence 6) [03E11657] (AR v2)
Track 12 accurately ripped (confidence 6) [AFFCC468] (AR v2)
Track 13 accurately ripped (confidence 5) [967F185C] (AR v2)
Track 14 accurately ripped (confidence 5) [1150643E] (AR v2)

All tracks accurately ripped

End of status report

==== Log checksum 3549306FA2BD9C4FB80361E0A683A7D8D6D66D04E0FF2D0FDEF155D82CF353C6 ====

REM GENRE Rock
REM DATE 1965
REM DISCID B908710E
REM COMMENT “ExactAudioCopy v1.1”
CATALOG 0000000000000
PERFORMER “The Beatles”
TITLE “Rubber Soul (C2 46440)”
FILE “Rubber Soul (C2 46440).flac” WAVE
TRACK 01 AUDIO
TITLE “Drive My Car”
PERFORMER “The Beatles”
INDEX 00 00:00:00
INDEX 01 00:00:32
TRACK 02 AUDIO
TITLE “Norwegian Wood (This Bird Has Flown)”
PERFORMER “The Beatles”
INDEX 00 02:27:60
INDEX 01 02:31:65
TRACK 03 AUDIO
TITLE “You Won’t See Me”
PERFORMER “The Beatles”
INDEX 00 04:34:32
INDEX 01 04:39:10
TRACK 04 AUDIO
TITLE “Nowhere Man”
PERFORMER “The Beatles”
INDEX 00 07:58:67
INDEX 01 08:02:55
TRACK 05 AUDIO
TITLE “Think For Yourself”
PERFORMER “The Beatles”
INDEX 00 10:44:17
INDEX 01 10:48:47
TRACK 06 AUDIO
TITLE “The Word”
PERFORMER “The Beatles”
INDEX 00 13:04:70
INDEX 01 13:09:10
TRACK 07 AUDIO
TITLE “Michelle”
PERFORMER “The Beatles”
INDEX 00 15:51:07
INDEX 01 15:55:52
TRACK 08 AUDIO
TITLE “What Goes On”
PERFORMER “The Beatles”
INDEX 00 18:38:12
INDEX 01 18:40:62
TRACK 09 AUDIO
TITLE “Girl”
PERFORMER “The Beatles”
INDEX 00 21:26:30
INDEX 01 21:30:55
TRACK 10 AUDIO
TITLE “I’m Looking Through You”
PERFORMER “The Beatles”
INDEX 00 23:59:35
INDEX 01 24:03:12
TRACK 11 AUDIO
TITLE “In My Life”
PERFORMER “The Beatles”
INDEX 00 26:27:35
INDEX 01 26:31:27
TRACK 12 AUDIO
TITLE “Wait”
PERFORMER “The Beatles”
INDEX 00 28:56:07
INDEX 01 29:00:30
TRACK 13 AUDIO
TITLE “If I Needed Someone”
PERFORMER “The Beatles”
INDEX 00 31:12:57
INDEX 01 31:17:07
TRACK 14 AUDIO
TITLE “Run For Your Life”
PERFORMER “The Beatles”
INDEX 00 33:37:27
INDEX 01 33:41:30


Leave a Reply

Your email address will not be published. Required fields are marked *

Enter the text from the image below
 

This site uses Akismet to reduce spam. Learn how your comment data is processed.