The Beatles – Rubber Soul (Reissue)




Artist: The Beatles
Year: 1965/1987
Genre: Rock
Notes: Discogs
Add. Notes: Reissue
Cover incl.: Yes
Encoder: FLAC
Bitrate: ~800 kBit/s (44.1 kHz/16 Bit/s)
Log & Cue incl.: Yes
Size: 257,86 MB
Password: “slam” (without ” “)


All Downloads/Hosters are compatible

Download 1
Turbobit.net
KatFile.com
Rapidgator.net
NitroFlare.com
Download 2
Turbobit.net
KatFile.com
Rapidgator.net
NitroFlare.com

Tracklist:

01. Drive My Car 2:30
02. Norwegian Wood (This Bird Has Flown) 2:05
03. You Won't See Me 3:23
04. Nowhere Man 2:44
05. Think For Yourself 2:19
06. The Word 2:44
07. Michelle 2:42
08. What Goes On 2:51
09. Girl 2:34
10. I'm Looking Through You 2:28
11. In My Life 2:28
12. Wait 2:17
13. If I Needed Someone 2:24
14. Run For Your Life 2:19

EAC-Log, CUE-Sheed & NFO:

Click to open spoiler
Exact Audio Copy V1.3 from 2. September 2016

EAC extraction logfile from 8. December 2017, 20:24

The Beatles / Rubber Soul (CDP 7 46440 2)

Used drive : PLEXTOR DVDR PX-891SA Adapter: 1 ID: 0

Read mode : Secure
Utilize accurate stream : Yes
Defeat audio cache : Yes
Make use of C2 pointers : No

Read offset correction : 6
Overread into Lead-In and Lead-Out : No
Fill up missing offset samples with silence : Yes
Delete leading and trailing silent blocks : No
Null samples used in CRC calculations : Yes
Used interface : Native Win32 interface for Win NT & 2000

Used output format : User Defined Encoder
Selected bitrate : 768 kBit/s
Quality : High
Add ID3 tag : No
Command line compressor : C:\Program Files (x86)\Exact Audio Copy\Flac\flac.exe
Additional command line options : -V -8 -T “Genre=%genre%” -T “Artist=%artist%” -T “Title=%title%” -T “Album=%albumtitle%” -T “Date=%year%” -T “Tracknumber=%tracknr%” -T “Comment=%comment%” %source%

TOC of the extracted CD

Track | Start | Length | Start sector | End sector
———————————————————
1 | 0:00.33 | 2:30.20 | 33 | 11302
2 | 2:30.53 | 2:05.32 | 11303 | 20709
3 | 4:36.10 | 3:22.45 | 20710 | 35904
4 | 7:58.55 | 2:44.23 | 35905 | 48227
5 | 10:43.03 | 2:19.25 | 48228 | 58677
6 | 13:02.28 | 2:43.52 | 58678 | 70954
7 | 15:46.05 | 2:42.28 | 70955 | 83132
8 | 18:28.33 | 2:50.60 | 83133 | 95942
9 | 21:19.18 | 2:33.65 | 95943 | 107482
10 | 23:53.08 | 2:27.62 | 107483 | 118569
11 | 26:20.70 | 2:27.73 | 118570 | 129667
12 | 28:48.68 | 2:16.72 | 129668 | 139939
13 | 31:05.65 | 2:23.63 | 139940 | 150727
14 | 33:29.53 | 2:18.60 | 150728 | 161137

Range status and errors

Selected range

Filename H:\dafnaplus\Rubber Soul\The Beatles – Rubber Soul (CDP 7 46440 2).wav

Peak level 100.0 %
Extraction speed 3.9 X
Range quality 99.9 %
Test CRC 01B312C9
Copy CRC 01B312C9
Copy OK

No errors occurred

AccurateRip summary

Track 1 accurately ripped (confidence 51) [9A7BB2FE] (AR v2)
Track 2 accurately ripped (confidence 50) [9A68E0A2] (AR v2)
Track 3 accurately ripped (confidence 51) [665DA41C] (AR v2)
Track 4 accurately ripped (confidence 50) [6E4BE9B1] (AR v2)
Track 5 accurately ripped (confidence 51) [051219C0] (AR v2)
Track 6 accurately ripped (confidence 51) [0ED12E4F] (AR v2)
Track 7 accurately ripped (confidence 51) [F503CDC7] (AR v2)
Track 8 accurately ripped (confidence 51) [463FE6C1] (AR v2)
Track 9 accurately ripped (confidence 51) [9C098A74] (AR v2)
Track 10 accurately ripped (confidence 51) [D5A1B31D] (AR v2)
Track 11 accurately ripped (confidence 51) [96391C4D] (AR v2)
Track 12 accurately ripped (confidence 51) [9B2B6D33] (AR v2)
Track 13 accurately ripped (confidence 51) [B503D6D7] (AR v2)
Track 14 accurately ripped (confidence 51) [8E3A5407] (AR v2)

All tracks accurately ripped

End of status report

—- CUETools DB Plugin V2.1.6

[CTDB TOCID: JkuhyVEd0Zm2BxbApANIHCvUZrA-] found
Submit result: already submitted
Track | CTDB Status
1 | (1783/1841) Accurately ripped
2 | (1800/1841) Accurately ripped
3 | (1794/1841) Accurately ripped, or (5/1841) differs in 12 samples @00:01:18
4 | (1800/1841) Accurately ripped
5 | (1809/1841) Accurately ripped
6 | (1805/1841) Accurately ripped
7 | (1816/1841) Accurately ripped
8 | (1807/1841) Accurately ripped
9 | (1805/1841) Accurately ripped, or (5/1841) differs in 12 samples @02:17:66
10 | (1804/1841) Accurately ripped
11 | (1805/1841) Accurately ripped
12 | (1807/1841) Accurately ripped
13 | (1805/1841) Accurately ripped
14 | (1799/1841) Accurately ripped

==== Log checksum 5FA1082C98E562C27946909E2785D6BAF85496C97B865D61F8C5789E3EF1DF07 ====

REM GENRE Rock
REM DATE 1987
REM DISCID AF08640E
REM COMMENT “ExactAudioCopy v1.3”
PERFORMER “The Beatles”
TITLE “Rubber Soul (CDP 7 46440 2)”
REM COMPOSER “”
FILE “The Beatles – Rubber Soul (CDP 7 46440 2).flac” WAVE
TRACK 01 AUDIO
TITLE “Drive My Car”
PERFORMER “The Beatles”
REM COMPOSER “”
INDEX 00 00:00:00
INDEX 01 00:00:33
TRACK 02 AUDIO
TITLE “Norwegian Wood (This Bird Has Flown)”
PERFORMER “The Beatles”
REM COMPOSER “”
INDEX 00 02:28:13
INDEX 01 02:30:53
TRACK 03 AUDIO
TITLE “You Won’t See Me”
PERFORMER “The Beatles”
REM COMPOSER “”
INDEX 00 04:34:23
INDEX 01 04:36:10
TRACK 04 AUDIO
TITLE “Nowhere Man”
PERFORMER “The Beatles”
REM COMPOSER “”
INDEX 00 07:55:45
INDEX 01 07:58:55
TRACK 05 AUDIO
TITLE “Think For Yourself”
PERFORMER “The Beatles”
REM COMPOSER “”
INDEX 00 10:41:33
INDEX 01 10:43:03
TRACK 06 AUDIO
TITLE “The Word”
PERFORMER “The Beatles”
REM COMPOSER “”
INDEX 00 13:01:25
INDEX 01 13:02:28
TRACK 07 AUDIO
TITLE “Michelle”
PERFORMER “The Beatles”
REM COMPOSER “”
INDEX 00 15:44:30
INDEX 01 15:46:05
TRACK 08 AUDIO
TITLE “What Goes On”
PERFORMER “The Beatles”
REM COMPOSER “”
INDEX 00 18:26:40
INDEX 01 18:28:33
TRACK 09 AUDIO
TITLE “Girl”
PERFORMER “The Beatles”
REM COMPOSER “”
INDEX 00 21:15:58
INDEX 01 21:19:18
TRACK 10 AUDIO
TITLE “I’m Looking Through You”
PERFORMER “The Beatles”
REM COMPOSER “”
INDEX 00 23:49:63
INDEX 01 23:53:08
TRACK 11 AUDIO
TITLE “In My Life”
PERFORMER “The Beatles”
REM COMPOSER “”
INDEX 00 26:18:20
INDEX 01 26:20:70
TRACK 12 AUDIO
TITLE “Wait”
PERFORMER “The Beatles”
REM COMPOSER “”
INDEX 00 28:46:20
INDEX 01 28:48:68
TRACK 13 AUDIO
TITLE “If I Needed Someone”
PERFORMER “The Beatles”
REM COMPOSER “”
INDEX 00 31:02:33
INDEX 01 31:05:65
TRACK 14 AUDIO
TITLE “Run For Your Life”
PERFORMER “The Beatles”
REM COMPOSER “”
INDEX 00 33:26:70
INDEX 01 33:29:53


Leave a Reply

Your email address will not be published. Required fields are marked *

This site uses Akismet to reduce spam. Learn how your comment data is processed.