The Beatles – Please Please Me (Reissue)




Artist: The Beatles
Year: 1963/1993
Genre: Rock
Notes: Discogs
Add. Notes: Reissue
Cover incl.: Yes
Encoder: FLAC
Bitrate: ~700 kBit/s (44.1 kHz/16 Bit/s)
Log & Cue incl.: Yes
Size: 198,61 MB
Password: “slam” (without ” “)


All Downloads/Hosters are compatible

Download 1
Turbobit.net
KatFile.com
Rapidgator.net
Usersdrive.com
Download 2
Turbobit.net
KatFile.com
Rapidgator.net
Usersdrive.com

Tracklist:

1 - I Saw Her Standing There - 2:52
2 - Misery - 1:47
3 - Anna (Go To Him) - 2:54
4 - Chains - 2:23
5 - Boys - 2:24
6 - Ask Me Why - 2:24
7 - Please Please Me - 2:00
8 - Love Me Do - 2:19
9 - P.S. I Love You - 2:02
10 - Baby It's You - 2:35
11 - Do You Want To Know A Secret - 1:56
12 - A Taste Of Honey - 2:01
13 - There's A Place - 1:49
14 - Twist And Shout - 2:33

EAC-Log, CUE-Sheed & NFO:

Click to open spoiler
Exact Audio Copy V1.3 from 2. September 2016

EAC extraction logfile from 11. July 2017, 19:10

The Beatles / Please Please Me (CDP 7 46435 2)

Used drive : PLEXTOR DVDR PX-891SA Adapter: 1 ID: 0

Read mode : Secure
Utilize accurate stream : Yes
Defeat audio cache : Yes
Make use of C2 pointers : No

Read offset correction : 6
Overread into Lead-In and Lead-Out : No
Fill up missing offset samples with silence : Yes
Delete leading and trailing silent blocks : No
Null samples used in CRC calculations : Yes
Used interface : Native Win32 interface for Win NT & 2000

Used output format : User Defined Encoder
Selected bitrate : 128 kBit/s
Quality : High
Add ID3 tag : No
Command line compressor : C:\Program Files (x86)\Exact Audio Copy\Flac\flac.exe
Additional command line options : -V -8 -T “Genre=%genre%” -T “Artist=%artist%” -T “Title=%title%” -T “Album=%albumtitle%” -T “Date=%year%” -T “Tracknumber=%tracknr%” -T “Comment=%comment%” %source%

TOC of the extracted CD

Track | Start | Length | Start sector | End sector
———————————————————
1 | 0:00.33 | 2:55.60 | 33 | 13217
2 | 2:56.18 | 1:50.12 | 13218 | 21479
3 | 4:46.30 | 2:57.43 | 21480 | 34797
4 | 7:43.73 | 2:26.37 | 34798 | 45784
5 | 10:10.35 | 2:27.38 | 45785 | 56847
6 | 12:37.73 | 2:27.57 | 56848 | 67929
7 | 15:05.55 | 2:03.28 | 67930 | 77182
8 | 17:09.08 | 2:22.57 | 77183 | 87889
9 | 19:31.65 | 2:05.55 | 87890 | 97319
10 | 21:37.45 | 2:38.05 | 97320 | 109174
11 | 24:15.50 | 1:59.25 | 109175 | 118124
12 | 26:15.00 | 2:05.10 | 118125 | 127509
13 | 28:20.10 | 1:52.65 | 127510 | 135974
14 | 30:13.00 | 2:33.20 | 135975 | 147469

Range status and errors

Selected range

Filename H:\dafnaplus\Please Please Me\The Beatles – Please Please Me (CDP 7 46435 2).wav

Peak level 100.0 %
Extraction speed 3.0 X
Range quality 99.9 %
Test CRC 2732F574
Copy CRC 2732F574
Copy OK

No errors occurred

AccurateRip summary

Track 1 accurately ripped (confidence 45) [BEBC6F69] (AR v2)
Track 2 accurately ripped (confidence 46) [D67DE0DB] (AR v2)
Track 3 accurately ripped (confidence 46) [0C04124E] (AR v2)
Track 4 accurately ripped (confidence 46) [819BD569] (AR v2)
Track 5 accurately ripped (confidence 46) [8B0C74B0] (AR v2)
Track 6 accurately ripped (confidence 46) [AD212058] (AR v2)
Track 7 accurately ripped (confidence 46) [4A3BBD56] (AR v2)
Track 8 accurately ripped (confidence 46) [26246C89] (AR v2)
Track 9 accurately ripped (confidence 46) [D73AC57A] (AR v2)
Track 10 accurately ripped (confidence 46) [1B678BBF] (AR v2)
Track 11 accurately ripped (confidence 46) [299A42D8] (AR v2)
Track 12 accurately ripped (confidence 45) [6250631E] (AR v2)
Track 13 accurately ripped (confidence 46) [894C7F15] (AR v2)
Track 14 accurately ripped (confidence 45) [98C1B251] (AR v2)

All tracks accurately ripped

End of status report

—- CUETools DB Plugin V2.1.6

[CTDB TOCID: NxA0cai3Ry5MLjxs4zRI3jvevSw-] found
Submit result: NxA0cai3Ry5MLjxs4zRI3jvevSw- has been confirmed
Track | CTDB Status
1 | (737/766) Accurately ripped
2 | (755/766) Accurately ripped
3 | (742/766) Accurately ripped
4 | (752/766) Accurately ripped
5 | (753/766) Accurately ripped, or (1/766) differs in 10 samples @00:50:24-00:50:25,01:09:25
6 | (751/766) Accurately ripped
7 | (633/766) Accurately ripped, or (110/766) differs in 1 samples @01:27:04
8 | (752/766) Accurately ripped
9 | (756/766) Accurately ripped
10 | (747/766) Accurately ripped
11 | (632/766) Accurately ripped, or (110/766) differs in 1 samples @00:38:65
12 | (685/766) Accurately ripped, or (63/766) differs in 9 samples @00:09:10
13 | (748/766) Accurately ripped
14 | (744/766) Accurately ripped

==== Log checksum 28965172FC8CF6E6426F65ECE477D7245EFA0A8380452633B75E6D096DFB0742 ====

REM GENRE Rock
REM DATE 1987
REM DISCID C507AE0E
REM COMMENT “ExactAudioCopy v1.3”
PERFORMER “The Beatles”
TITLE “Please Please Me (CDP 7 46435 2)”
REM COMPOSER “”
FILE “The Beatles – Please Please Me (CDP 7 46435 2).flac” WAVE
TRACK 01 AUDIO
TITLE “I Saw Her Standing There”
PERFORMER “The Beatles”
REM COMPOSER “”
INDEX 00 00:00:00
INDEX 01 00:00:33
TRACK 02 AUDIO
TITLE “Misery”
PERFORMER “The Beatles”
REM COMPOSER “”
INDEX 00 02:53:23
INDEX 01 02:56:18
TRACK 03 AUDIO
TITLE “Anna (Go To Him)”
PERFORMER “The Beatles”
REM COMPOSER “”
INDEX 00 04:43:53
INDEX 01 04:46:30
TRACK 04 AUDIO
TITLE “Chains”
PERFORMER “The Beatles”
REM COMPOSER “”
INDEX 00 07:41:20
INDEX 01 07:43:73
TRACK 05 AUDIO
TITLE “Boys”
PERFORMER “The Beatles”
REM COMPOSER “”
INDEX 00 10:07:33
INDEX 01 10:10:35
TRACK 06 AUDIO
TITLE “Ask Me Why”
PERFORMER “The Beatles”
REM COMPOSER “”
INDEX 00 12:35:03
INDEX 01 12:37:73
TRACK 07 AUDIO
TITLE “Please Please Me”
PERFORMER “The Beatles”
REM COMPOSER “”
INDEX 00 15:02:63
INDEX 01 15:05:55
TRACK 08 AUDIO
TITLE “Love Me Do”
PERFORMER “The Beatles”
REM COMPOSER “”
INDEX 00 17:06:08
INDEX 01 17:09:08
TRACK 09 AUDIO
TITLE “P.S. I Love You”
PERFORMER “The Beatles”
REM COMPOSER “”
INDEX 00 19:28:55
INDEX 01 19:31:65
TRACK 10 AUDIO
TITLE “Baby It’s You”
PERFORMER “The Beatles”
REM COMPOSER “”
INDEX 00 21:34:55
INDEX 01 21:37:45
TRACK 11 AUDIO
TITLE “Do You Want To Know A Secret”
PERFORMER “The Beatles”
REM COMPOSER “”
INDEX 00 24:13:08
INDEX 01 24:15:50
TRACK 12 AUDIO
TITLE “A Taste Of Honey”
PERFORMER “The Beatles”
REM COMPOSER “”
INDEX 00 26:11:70
INDEX 01 26:15:00
TRACK 13 AUDIO
TITLE “There’s A Place”
PERFORMER “The Beatles”
REM COMPOSER “”
INDEX 00 28:16:63
INDEX 01 28:20:10
TRACK 14 AUDIO
TITLE “Twist And Shout”
PERFORMER “The Beatles”
REM COMPOSER “”
INDEX 00 30:09:58
INDEX 01 30:13:00


Leave a Reply

Your email address will not be published. Required fields are marked *

This site uses Akismet to reduce spam. Learn how your comment data is processed.