The Beatles – Please Please Me (Japanese Edition)




[Total: 0    Average: 0/5]

Artist: The Beatles
Year: 1963/1987
Genre: Rock
Notes: Discogs
Add. Notes: Japanese Edition
Cover incl.: Yes
Encoder: FLAC
Bitrate: ~700 kBit/s (44.1 kHz/16 Bit/s)
Log & Cue incl.: Yes
Size: 192,55 MB
Password: “slam” (without ” “)


All Downloads/Hosters are compatible

Download 1
Share-online.biz
KatFile.com
Rapidgator.net
Download 2
Share-online.biz
KatFile.com
Rapidgator.net

Tracklist:

1 - I Saw Her Standing There - 2:55
2 - Misery - 1:50
3 - Anna (Go To Him) - 2:57
4 - Chains - 2:26
5 - Boys - 2:27
6 - Ask Me Why - 2:27
7 - Please Please Me - 2:03
8 - Love Me Do - 2:22
9 - P.S. I Love You - 2:05
10 - Baby It's You - 2:38
11 - Do You Want To Know A Secret - 1:59
12 - A Taste Of Honey - 2:05
13 - There's A Place - 1:52
14 - Twist And Shout - 2:33

EAC-Log, CUE-Sheed & NFO:

Click to open spoiler
Exact Audio Copy V1.0 beta 3 from 29. August 2011

EAC extraction logfile from 13. January 2014, 17:16

Beatles / Please Please Me

Used drive : SONY BD RW BDX-S600U Adapter: 2 ID: 1

Read mode : Secure
Utilize accurate stream : Yes
Defeat audio cache : Yes
Make use of C2 pointers : No

Read offset correction : 48
Overread into Lead-In and Lead-Out : No
Fill up missing offset samples with silence : Yes
Delete leading and trailing silent blocks : No
Null samples used in CRC calculations : Yes
Used interface : Native Win32 interface for Win NT & 2000

Used output format : User Defined Encoder
Selected bitrate : 128 kBit/s
Quality : High
Add ID3 tag : No
Command line compressor : C:\Program Files (x86)\Exact Audio Copy\Flac\flac.exe
Additional command line options : -V -8 -T “Date=%year%” -T “Genre=%genre%” %source%

TOC of the extracted CD

Track | Start | Length | Start sector | End sector
———————————————————
1 | 0:00.32 | 2:55.60 | 32 | 13216
2 | 2:56.17 | 1:50.13 | 13217 | 21479
3 | 4:46.30 | 2:57.42 | 21480 | 34796
4 | 7:43.72 | 2:26.38 | 34797 | 45784
5 | 10:10.35 | 2:27.37 | 45785 | 56846
6 | 12:37.72 | 2:27.58 | 56847 | 67929
7 | 15:05.55 | 2:03.27 | 67930 | 77181
8 | 17:09.07 | 2:22.58 | 77182 | 87889
9 | 19:31.65 | 2:05.55 | 87890 | 97319
10 | 21:37.45 | 2:38.05 | 97320 | 109174
11 | 24:15.50 | 1:59.25 | 109175 | 118124
12 | 26:15.00 | 2:05.10 | 118125 | 127509
13 | 28:20.10 | 1:52.65 | 127510 | 135974
14 | 30:13.00 | 2:33.20 | 135975 | 147469

Range status and errors

Selected range

Filename D:\1963. The Beatles – Please Please Me\1963. The Beatles – Please Please Me (Toshiba-EMI, CP32-5323,Japan)\Beatles – Please Please Me.wav

Peak level 100.0 %
Extraction speed 5.9 X
Range quality 100.0 %
Test CRC 44DBF355
Copy CRC 44DBF355
Copy OK

No errors occurred

AccurateRip summary

Track 1 accurately ripped (confidence 10) [AF8ADE29] (AR v2)
Track 2 accurately ripped (confidence 10) [DCB15FE9] (AR v2)
Track 3 accurately ripped (confidence 10) [D645D725] (AR v2)
Track 4 accurately ripped (confidence 10) [CEF7A4BA] (AR v2)
Track 5 accurately ripped (confidence 10) [B406F7F0] (AR v2)
Track 6 accurately ripped (confidence 10) [57A5BD7D] (AR v2)
Track 7 accurately ripped (confidence 10) [F2EC85C2] (AR v2)
Track 8 accurately ripped (confidence 10) [B9CF7172] (AR v2)
Track 9 accurately ripped (confidence 10) [E7571A66] (AR v2)
Track 10 accurately ripped (confidence 10) [F139AA1D] (AR v2)
Track 11 accurately ripped (confidence 10) [B6596249] (AR v2)
Track 12 accurately ripped (confidence 10) [E137D538] (AR v2)
Track 13 accurately ripped (confidence 10) [FCBF2226] (AR v2)
Track 14 accurately ripped (confidence 10) [496EAF46] (AR v2)

All tracks accurately ripped

End of status report

—- CUETools DB Plugin V2.1.3

[CTDB TOCID: d.H2AIqsahY__XopJYD7lAO59Iw-] found, Submit result: discs with pregaps not supported in this protocol version
[6e26525e] (2/2) Differs in 0 samples @
You can use CUETools to repair this rip.

==== Log checksum CC15066A09E3E7F57C03DB5AEE8B8ADBDAC3473F00DC5FCCFAF6210274ECE593 ====

REM GENRE Rock
REM DATE 1963
REM DISCID C507AE0E
REM COMMENT “ExactAudioCopy v1.0b3”
CATALOG 0000000000000
PERFORMER “Beatles”
TITLE “Please Please Me”
FILE “Beatles – Please Please Me.flac” WAVE
TRACK 01 AUDIO
TITLE “I Saw Her Standing There”
PERFORMER “Beatles”
ISRC 000000000000
INDEX 00 00:00:00
INDEX 01 00:00:32
TRACK 02 AUDIO
TITLE “Misery”
PERFORMER “Beatles”
ISRC 000000000000
INDEX 00 02:53:22
INDEX 01 02:56:17
TRACK 03 AUDIO
TITLE “Anna (Go To Him)”
PERFORMER “Beatles”
ISRC 000000000000
INDEX 00 04:43:52
INDEX 01 04:46:30
TRACK 04 AUDIO
TITLE “Chains”
PERFORMER “Beatles”
ISRC 000000000000
INDEX 00 07:41:20
INDEX 01 07:43:72
TRACK 05 AUDIO
TITLE “Boys”
PERFORMER “Beatles”
ISRC 000000000000
INDEX 00 10:07:32
INDEX 01 10:10:35
TRACK 06 AUDIO
TITLE “Ask Me Why”
PERFORMER “Beatles”
ISRC 000000000000
INDEX 00 12:35:02
INDEX 01 12:37:72
TRACK 07 AUDIO
TITLE “Please Please Me”
PERFORMER “Beatles”
ISRC 000000000000
INDEX 00 15:02:62
INDEX 01 15:05:55
TRACK 08 AUDIO
TITLE “Love Me Do”
PERFORMER “Beatles”
ISRC 000000000000
INDEX 00 17:06:07
INDEX 01 17:09:07
TRACK 09 AUDIO
TITLE “P.S. I Love You”
PERFORMER “Beatles”
ISRC 000000000000
INDEX 00 19:28:55
INDEX 01 19:31:65
TRACK 10 AUDIO
TITLE “Baby It’s You”
PERFORMER “Beatles”
ISRC 000000000000
INDEX 00 21:34:55
INDEX 01 21:37:45
TRACK 11 AUDIO
TITLE “Do You Want To Know A Secret”
PERFORMER “Beatles”
ISRC 000000000000
INDEX 00 24:13:07
INDEX 01 24:15:50
TRACK 12 AUDIO
TITLE “A Taste Of Honey”
PERFORMER “Beatles”
ISRC 000000000000
INDEX 00 26:11:70
INDEX 01 26:15:00
TRACK 13 AUDIO
TITLE “There’s A Place”
PERFORMER “Beatles”
ISRC 000000000000
INDEX 00 28:16:62
INDEX 01 28:20:10
TRACK 14 AUDIO
TITLE “Twist And Shout”
PERFORMER “Beatles”
ISRC 000000000000
INDEX 00 30:09:57
INDEX 01 30:13:00


Spread the Download

Leave a Reply

Your email address will not be published. Required fields are marked *

Enter the text from the image below
 

This site uses Akismet to reduce spam. Learn how your comment data is processed.