The Beatles – Please Please Me (Japanese Edition)




[Total: 0    Average: 0/5]

Artist: The Beatles
Year: 1963/1994
Genre: Rock
Notes: Discogs
Add. Notes: Japanese Edition
Cover incl.: Yes
Encoder: FLAC
Bitrate: ~700 kBit/s (44.1 kHz/16 Bit/s)
Log & Cue incl.: Yes
Size: 200,4 MB
Password: “slam” (without ” “)


All Downloads/Hosters are compatible

Download 1
Share-online.biz
KatFile.com
Rapidgator.net
Mexa.sh
Download 2
Share-online.biz
KatFile.com
Rapidgator.net
Mexa.sh

Tracklist:

1 - I Saw Her Standing There - 2:52
2 - Misery - 1:50
3 - Anna (Go To Him) - 2:58
4 - Chains - 2:26
5 - Boys - 2:28
6 - Ask Me Why - 2:28
7 - Please Please Me - 2:03
8 - Love Me Do - 2:23
9 - P.S. I Love You - 2:06
10 - Baby It's You - 2:38
11 - Do You Want To Know A Secret - 1:59
12 - A Taste Of Honey - 2:05
13 - There's A Place - 1:53
14 - Twist And Shout - 2:33

EAC-Log, CUE-Sheed & NFO:

Click to open spoiler
Exact Audio Copy V1.3 from 2. September 2016

EAC extraction logfile from 8. December 2017, 19:36

The Beatles / Please Please Me (Japan CDP 7 46435 2)

Used drive : PLEXTOR DVDR PX-891SA Adapter: 1 ID: 0

Read mode : Secure
Utilize accurate stream : Yes
Defeat audio cache : Yes
Make use of C2 pointers : No

Read offset correction : 6
Overread into Lead-In and Lead-Out : No
Fill up missing offset samples with silence : Yes
Delete leading and trailing silent blocks : No
Null samples used in CRC calculations : Yes
Used interface : Native Win32 interface for Win NT & 2000

Used output format : User Defined Encoder
Selected bitrate : 768 kBit/s
Quality : High
Add ID3 tag : No
Command line compressor : C:\Program Files (x86)\Exact Audio Copy\Flac\flac.exe
Additional command line options : -V -8 -T “Genre=%genre%” -T “Artist=%artist%” -T “Title=%title%” -T “Album=%albumtitle%” -T “Date=%year%” -T “Tracknumber=%tracknr%” -T “Comment=%comment%” %source%

TOC of the extracted CD

Track | Start | Length | Start sector | End sector
———————————————————
1 | 0:00.37 | 2:55.70 | 37 | 13231
2 | 2:56.32 | 1:50.05 | 13232 | 21486
3 | 4:46.37 | 2:57.43 | 21487 | 34804
4 | 7:44.05 | 2:26.35 | 34805 | 45789
5 | 10:10.40 | 2:27.40 | 45790 | 56854
6 | 12:38.05 | 2:27.57 | 56855 | 67936
7 | 15:05.62 | 2:03.25 | 67937 | 77186
8 | 17:09.12 | 2:22.60 | 77187 | 87896
9 | 19:31.72 | 2:05.53 | 87897 | 97324
10 | 21:37.50 | 2:38.07 | 97325 | 109181
11 | 24:15.57 | 1:59.25 | 109182 | 118131
12 | 26:15.07 | 2:05.10 | 118132 | 127516
13 | 28:20.17 | 1:52.65 | 127517 | 135981
14 | 30:13.07 | 2:33.30 | 135982 | 147486

Range status and errors

Selected range

Filename H:\dafnaplus\Please Please Me\The Beatles – Please Please Me (Japan CDP 7 46435 2).wav

Peak level 100.0 %
Extraction speed 7.6 X
Range quality 100.0 %
Test CRC 64463FF3
Copy CRC 64463FF3
Copy OK

No errors occurred

AccurateRip summary

Track 1 accurately ripped (confidence 15) [1E2C76E9] (AR v2)
Track 2 accurately ripped (confidence 15) [C60A2EF9] (AR v2)
Track 3 accurately ripped (confidence 15) [D221B355] (AR v2)
Track 4 accurately ripped (confidence 15) [8614EF5A] (AR v2)
Track 5 accurately ripped (confidence 15) [4EE4E256] (AR v2)
Track 6 accurately ripped (confidence 15) [3AA37E75] (AR v2)
Track 7 accurately ripped (confidence 16) [8C6D21C8] (AR v2)
Track 8 accurately ripped (confidence 16) [2C00B034] (AR v2)
Track 9 accurately ripped (confidence 15) [F8B94B24] (AR v2)
Track 10 accurately ripped (confidence 16) [C295F4C4] (AR v2)
Track 11 accurately ripped (confidence 15) [F8B57EB3] (AR v2)
Track 12 accurately ripped (confidence 15) [B2E5A4D7] (AR v2)
Track 13 accurately ripped (confidence 15) [44BBD037] (AR v2)
Track 14 accurately ripped (confidence 15) [CBE4A9DE] (AR v2)

All tracks accurately ripped

End of status report

—- CUETools DB Plugin V2.1.6

[CTDB TOCID: 5RTEU_NtH1qiVJ0ESrIqD2bdZyU-] found
Submit result: already submitted
Track | CTDB Status
1 | (41/41) Accurately ripped
2 | (41/41) Accurately ripped
3 | (40/41) Accurately ripped
4 | (41/41) Accurately ripped
5 | (41/41) Accurately ripped
6 | (41/41) Accurately ripped
7 | (41/41) Accurately ripped
8 | (41/41) Accurately ripped
9 | (41/41) Accurately ripped
10 | (41/41) Accurately ripped
11 | (41/41) Accurately ripped
12 | (41/41) Accurately ripped
13 | (41/41) Accurately ripped
14 | (41/41) Accurately ripped

==== Log checksum E89BA2C6EC27C1E7408E7489F5E1A3F04814EB2E6BA01A525CE360BCFB4B3728 ====

REM GENRE Rock
REM DATE 1987
REM DISCID BE07AE0E
REM COMMENT “ExactAudioCopy v1.3”
PERFORMER “The Beatles”
TITLE “Please Please Me (Japan CDP 7 46435 2)”
REM COMPOSER “”
FILE “The Beatles – Please Please Me (Japan CDP 7 46435 2).flac” WAVE
TRACK 01 AUDIO
TITLE “I Saw Her Standing There”
PERFORMER “The Beatles”
REM COMPOSER “”
INDEX 00 00:00:00
INDEX 01 00:00:37
TRACK 02 AUDIO
TITLE “Misery”
PERFORMER “The Beatles”
REM COMPOSER “”
INDEX 00 02:53:40
INDEX 01 02:56:32
TRACK 03 AUDIO
TITLE “Anna (Go To Him)”
PERFORMER “The Beatles”
REM COMPOSER “”
INDEX 00 04:43:52
INDEX 01 04:46:37
TRACK 04 AUDIO
TITLE “Chains”
PERFORMER “The Beatles”
REM COMPOSER “”
INDEX 00 07:41:32
INDEX 01 07:44:05
TRACK 05 AUDIO
TITLE “Boys”
PERFORMER “The Beatles”
REM COMPOSER “”
INDEX 00 10:07:45
INDEX 01 10:10:40
TRACK 06 AUDIO
TITLE “Ask Me Why”
PERFORMER “The Beatles”
REM COMPOSER “”
INDEX 00 12:35:22
INDEX 01 12:38:05
TRACK 07 AUDIO
TITLE “Please Please Me”
PERFORMER “The Beatles”
REM COMPOSER “”
INDEX 00 15:02:55
INDEX 01 15:05:62
TRACK 08 AUDIO
TITLE “Love Me Do”
PERFORMER “The Beatles”
REM COMPOSER “”
INDEX 00 17:06:07
INDEX 01 17:09:12
TRACK 09 AUDIO
TITLE “P.S. I Love You”
PERFORMER “The Beatles”
REM COMPOSER “”
INDEX 00 19:28:60
INDEX 01 19:31:72
TRACK 10 AUDIO
TITLE “Baby It’s You”
PERFORMER “The Beatles”
REM COMPOSER “”
INDEX 00 21:34:70
INDEX 01 21:37:50
TRACK 11 AUDIO
TITLE “Do You Want To Know A Secret”
PERFORMER “The Beatles”
REM COMPOSER “”
INDEX 00 24:13:05
INDEX 01 24:15:57
TRACK 12 AUDIO
TITLE “A Taste Of Honey”
PERFORMER “The Beatles”
REM COMPOSER “”
INDEX 00 26:12:02
INDEX 01 26:15:07
TRACK 13 AUDIO
TITLE “There’s A Place”
PERFORMER “The Beatles”
REM COMPOSER “”
INDEX 00 28:16:67
INDEX 01 28:20:17
TRACK 14 AUDIO
TITLE “Twist And Shout”
PERFORMER “The Beatles”
REM COMPOSER “”
INDEX 00 30:09:57
INDEX 01 30:13:07


Spread the Download

Leave a Reply

Your email address will not be published. Required fields are marked *

Enter the text from the image below
 

This site uses Akismet to reduce spam. Learn how your comment data is processed.