The Beatles – Past Masters – Volume Two




Artist: The Beatles
Year: 1988
Genre: Rock
Notes: Discogs
Add. Notes:
Cover incl.: Yes
Encoder: FLAC
Bitrate: ~900 kBit/s (44.1 kHz/16 Bit/s)
Log & Cue incl.: Yes
Size: 360,1 MB
Password: “slam” (without ” “)


All Downloads/Hosters are compatible

Download 1
Turbobit.net
NitroFlare.com
KatFile.com
Rapidgator.net
Download 2
Turbobit.net
NitroFlare.com
KatFile.com
Rapidgator.net

Tracklist:

1 - Day Tripper - 2:49
2 - We Can Work It Out - 2:15
3 - Paperback Writer - 2:18
4 - Rain - 3:02
5 - Lady Madonna - 2:17
6 - The Inner Light - 2:36
7 - Hey Jude - 7:08
8 - Revolution - 3:24
9 - Get Back - 3:14
10 - Don't Let Me Down - 3:34
11 - The Ballad Of John And Yoko - 3:00
12 - Old Brown Shoe - 3:18
13 - Across The Universe - 3:49
14 - Let It Be - 3:50
15 - You Know My Name (Look Up The Number) - 4:19

EAC-Log, CUE-Sheed & NFO:

Click to open spoiler
Exact Audio Copy V1.0 beta 3 from 29. August 2011

EAC extraction logfile from 4. October 2013, 18:09

The Beatles / Past Masters · Volume Two

Used drive : PLEXTOR DVDR PX-891SA Adapter: 1 ID: 0

Read mode : Secure
Utilize accurate stream : Yes
Defeat audio cache : Yes
Make use of C2 pointers : No

Read offset correction : 6
Overread into Lead-In and Lead-Out : No
Fill up missing offset samples with silence : Yes
Delete leading and trailing silent blocks : No
Null samples used in CRC calculations : Yes
Used interface : Native Win32 interface for Win NT & 2000

Used output format : User Defined Encoder
Selected bitrate : 1024 kBit/s
Quality : High
Add ID3 tag : No
Command line compressor : C:\Program Files\Exact Audio Copy\Flac\flac.exe
Additional command line options : -V -8 -T “Genre=%genre%” -T “Artist=%artist%” -T “Title=%title%” -T “Album=%albumtitle%” -T “Date=%year%” -T “Tracknumber=%tracknr%” -T “Comment=%comment%” %source%

TOC of the extracted CD

Track | Start | Length | Start sector | End sector
———————————————————
1 | 0:00.33 | 2:49.42 | 33 | 12749
2 | 2:50.00 | 2:15.48 | 12750 | 22922
3 | 5:05.48 | 2:18.67 | 22923 | 33339
4 | 7:24.40 | 3:02.05 | 33340 | 46994
5 | 10:26.45 | 2:17.50 | 46995 | 57319
6 | 12:44.20 | 2:36.53 | 57320 | 69072
7 | 15:20.73 | 7:08.22 | 69073 | 101194
8 | 22:29.20 | 3:24.50 | 101195 | 116544
9 | 25:53.70 | 3:14.40 | 116545 | 131134
10 | 29:08.35 | 3:34.70 | 131135 | 147254
11 | 32:43.30 | 3:00.00 | 147255 | 160754
12 | 35:43.30 | 3:18.35 | 160755 | 175639
13 | 39:01.65 | 3:49.28 | 175640 | 192842
14 | 42:51.18 | 3:50.72 | 192843 | 210164
15 | 46:42.15 | 4:19.18 | 210165 | 229607

Range status and errors

Selected range

Filename I:\dafnaplus\The Beatles\1988 – Past Masters · Volume Two\The Beatles – Past Masters · Volume Two.wav

Peak level 100.0 %
Extraction speed 7.8 X
Range quality 100.0 %
Test CRC 39C26054
Copy CRC 39C26054
Copy OK

No errors occurred

AccurateRip summary

Track 1 accurately ripped (confidence 45) [9B1F5510] (AR v2)
Track 2 accurately ripped (confidence 46) [E4D0AAB0] (AR v2)
Track 3 accurately ripped (confidence 47) [EBAC4309] (AR v2)
Track 4 accurately ripped (confidence 47) [23664994] (AR v2)
Track 5 accurately ripped (confidence 47) [9FAA02A5] (AR v2)
Track 6 accurately ripped (confidence 47) [C85256A9] (AR v2)
Track 7 accurately ripped (confidence 47) [5A72763D] (AR v2)
Track 8 accurately ripped (confidence 47) [EE01E2C4] (AR v2)
Track 9 accurately ripped (confidence 47) [E4334A99] (AR v2)
Track 10 accurately ripped (confidence 46) [529C8522] (AR v2)
Track 11 accurately ripped (confidence 47) [4B852758] (AR v2)
Track 12 accurately ripped (confidence 45) [AD09E103] (AR v2)
Track 13 accurately ripped (confidence 47) [F6456865] (AR v2)
Track 14 accurately ripped (confidence 47) [214D2C6A] (AR v2)
Track 15 accurately ripped (confidence 47) [91D5F038] (AR v2)

All tracks accurately ripped

End of status report

==== Log checksum C98DC719B6984CBEFD7F835D7FD3A99F4708022C2DF966971105CDDA8D5E0420 ====

REM GENRE Rock
REM DATE 1988
REM DISCID C70BF50F
REM COMMENT “ExactAudioCopy v1.0b3”
CATALOG 0000000000000
PERFORMER “The Beatles”
TITLE “Past Masters · Volume Two”
FILE “The Beatles – Past Masters · Volume Two.flac” WAVE
TRACK 01 AUDIO
TITLE “Day Tripper”
PERFORMER “The Beatles”
INDEX 00 00:00:00
INDEX 01 00:00:33
TRACK 02 AUDIO
TITLE “We Can Work It Out”
PERFORMER “The Beatles”
INDEX 00 02:48:70
INDEX 01 02:50:00
TRACK 03 AUDIO
TITLE “Paperback Writer”
PERFORMER “The Beatles”
INDEX 00 05:04:33
INDEX 01 05:05:48
TRACK 04 AUDIO
TITLE “Rain”
PERFORMER “The Beatles”
INDEX 00 07:23:25
INDEX 01 07:24:40
TRACK 05 AUDIO
TITLE “Lady Madonna”
PERFORMER “The Beatles”
INDEX 00 10:25:20
INDEX 01 10:26:45
TRACK 06 AUDIO
TITLE “The Inner Light”
PERFORMER “The Beatles”
INDEX 00 12:42:65
INDEX 01 12:44:20
TRACK 07 AUDIO
TITLE “Hey Jude”
PERFORMER “The Beatles”
INDEX 00 15:19:50
INDEX 01 15:20:73
TRACK 08 AUDIO
TITLE “Revolution”
PERFORMER “The Beatles”
INDEX 00 22:28:18
INDEX 01 22:29:20
TRACK 09 AUDIO
TITLE “Get Back (with Billy Preston)”
PERFORMER “The Beatles”
INDEX 00 25:52:63
INDEX 01 25:53:70
TRACK 10 AUDIO
TITLE “Don’t Let Me Down (with Billy Preston)”
PERFORMER “The Beatles”
INDEX 00 29:05:58
INDEX 01 29:08:35
TRACK 11 AUDIO
TITLE “The Ballad Of John And Yoko”
PERFORMER “The Beatles”
INDEX 00 32:42:20
INDEX 01 32:43:30
TRACK 12 AUDIO
TITLE “Old Brown Shoe”
PERFORMER “The Beatles”
INDEX 00 35:41:68
INDEX 01 35:43:30
TRACK 13 AUDIO
TITLE “Across The Universe”
PERFORMER “The Beatles”
INDEX 00 39:01:08
INDEX 01 39:01:65
TRACK 14 AUDIO
TITLE “Let It Be”
PERFORMER “The Beatles”
INDEX 00 42:50:13
INDEX 01 42:51:18
TRACK 15 AUDIO
TITLE “You Know My Name (Look Up The Number)”
PERFORMER “The Beatles”
INDEX 00 46:41:33
INDEX 01 46:42:15


Leave a Reply

Your email address will not be published. Required fields are marked *

This site uses Akismet to reduce spam. Learn how your comment data is processed.