The Beatles – On Air – Live At The BBC Volume 2 (Remastered)




Artist: The Beatles
Year: 2013
Genre: Rock
Notes: Discogs
Add. Notes: Remastered
Cover incl.: Yes
Encoder: FLAC
Bitrate: ~700 kBit/s (44.1 kHz/16 Bit/s)
Log & Cue incl.: Yes
Size: 603 MB
Password: “slam” (without ” “)


All Downloads/Hosters are compatible

Download 1
KatFile.com
Rapidgator.net
FileFactory.com
Turbobit.net
Download 2
KatFile.com
Rapidgator.net
FileFactory.com
Turbobit.net

Tracklist:

1-1 And Here We Are Again 
1-2 Words Of Love 
1-3 How About It, Gorgeous? 
1-4 Do You Want To Know A Secret? 
1-5 Lucille 
1-6 Hey, Paul... 
1-7 Anna (Go To Him) 
1-8 Hello! 
1-9 Please Please Me 
1-10 Misery 
1-11 I'm Talking About You 
1-12 A Real Treat 
1-13 Boys 
1-14 Absolutely Fab 
1-15 Chains 
1-16 Ask Me Why 
1-17 Till There Was You 
1-18 Lend Me Your Comb 
1-19 Lower 5E 
1-20 The Hippy Hippy Shake 
1-21 Roll Over Beethoven 
1-22 There's A Place 
1-23 Bumper Bundle 
1-24 P.S. I Love You 
1-25 Please Mister Postman 
1-26 Beautiful Dreamer 
1-27 Devil In Her Heart 
1-28 The 49 Weeks 
1-29 Sure To Fall (In Love With You) 
1-30 Never Mind, Eh? 
1-31 Twist And Shout 
1-32 Bye, Bye 
 Extra Interview Tracks
1-33 John - Pop Profile 
1-34 George - Pop Profile 
2-1 I Saw Her Standing There 
2-2 Glad All Over 
2-3 Lift Lid Again 
2-4 I'll Get You 
2-5 She Loves You 
2-6 Memphis, Tennessee 
2-7 Happy Birthday Dear Saturday 
Club 
2-8 Now Hush, Hush 
2-9 From Me To You 
2-10 Money (That's What I Want) 
2-11 I Want To Hold Your Hand 
2-12 Brian Bathtubes 
2-13 This Boy 
2-14 If I Wasn't In America 
2-15 I Got A Woman 
2-16 Long Tall Sally 
2-17 If I Fell 
2-18 A Hard Job Writing Team 
2-19 And I Love Her 
2-20 Oh, Can't We? Yes We Can 
2-21 You Can't Do That 
2-22 Honey Don't 
2-23 I'll Follow The Sun 
2-24 Green With Black Shutters 
2-25 Kansas City/Hey-Hey-Hey-Hey! 
2-26 That's What We're Here For 
2-27 I Feel Fine (Studio Outtake) 
 Extra Interview Tracks
2-28 Paul - Pop Profile 
2-29 Ringo - Pop Profile

EAC-Log, CUE-Sheed & NFO:

Click to open spoiler
Exact Audio Copy V1.0 beta 3 from 29. August 2011

EAC extraction logfile from 20. December 2013, 17:08

The Beatles / On Air – Live At The BBC Volume 2 (Disc 1)

Used drive : PLEXTOR DVDR PX-891SA Adapter: 1 ID: 0

Read mode : Secure
Utilize accurate stream : Yes
Defeat audio cache : Yes
Make use of C2 pointers : No

Read offset correction : 6
Overread into Lead-In and Lead-Out : No
Fill up missing offset samples with silence : Yes
Delete leading and trailing silent blocks : No
Null samples used in CRC calculations : Yes
Used interface : Native Win32 interface for Win NT & 2000

Used output format : User Defined Encoder
Selected bitrate : 1024 kBit/s
Quality : High
Add ID3 tag : No
Command line compressor : C:\Program Files\Exact Audio Copy\Flac\flac.exe
Additional command line options : -V -8 -T “Genre=%genre%” -T “Artist=%artist%” -T “Title=%title%” -T “Album=%albumtitle%” -T “Date=%year%” -T “Tracknumber=%tracknr%” -T “Comment=%comment%” %source%

TOC of the extracted CD

Track | Start | Length | Start sector | End sector
———————————————————
1 | 0:00.00 | 0:15.33 | 0 | 1157
2 | 0:15.33 | 1:55.56 | 1158 | 9838
3 | 2:11.14 | 0:37.20 | 9839 | 12633
4 | 2:48.34 | 1:47.39 | 12634 | 20697
5 | 4:35.73 | 2:28.60 | 20698 | 31857
6 | 7:04.58 | 0:21.05 | 31858 | 33437
7 | 7:25.63 | 2:49.42 | 33438 | 46154
8 | 10:15.30 | 0:18.66 | 46155 | 47570
9 | 10:34.21 | 1:55.33 | 47571 | 56228
10 | 12:29.54 | 1:49.43 | 56229 | 64446
11 | 14:19.22 | 1:52.10 | 64447 | 72856
12 | 16:11.32 | 0:36.54 | 72857 | 75610
13 | 16:48.11 | 2:28.58 | 75611 | 86768
14 | 19:16.69 | 0:27.29 | 86769 | 88822
15 | 19:44.23 | 2:15.09 | 88823 | 98956
16 | 21:59.32 | 1:54.16 | 98957 | 107522
17 | 23:53.48 | 2:16.13 | 107523 | 117735
18 | 26:09.61 | 1:46.64 | 117736 | 125749
19 | 27:56.50 | 0:23.23 | 125750 | 127497
20 | 28:19.73 | 1:46.10 | 127498 | 135457
21 | 30:06.08 | 2:21.64 | 135458 | 146096
22 | 32:27.72 | 1:48.72 | 146097 | 154268
23 | 34:16.69 | 0:49.24 | 154269 | 157967
24 | 35:06.18 | 1:59.25 | 157968 | 166917
25 | 37:05.43 | 2:16.37 | 166918 | 177154
26 | 39:22.05 | 1:46.08 | 177155 | 185112
27 | 41:08.13 | 2:21.50 | 185113 | 195737
28 | 43:29.63 | 0:16.47 | 195738 | 196984
29 | 43:46.35 | 2:20.49 | 196985 | 207533
30 | 46:07.09 | 0:34.21 | 207534 | 210104
31 | 46:41.30 | 2:25.24 | 210105 | 221003
32 | 49:06.54 | 0:24.05 | 221004 | 222808
33 | 49:30.59 | 8:21.66 | 222809 | 260449
34 | 57:52.50 | 8:05.62 | 260450 | 296886

Range status and errors

Selected range

Filename I:\dafnaplus\2013 – The Beatles On Air – Live At The BBC Volume 2\Disc 1\The Beatles – On Air – Live At The BBC Volume 2 (Disc 1).wav

Peak level 99.8 %
Extraction speed 8.7 X
Range quality 100.0 %
Test CRC 684A65BB
Copy CRC 684A65BB
Copy OK

No errors occurred

AccurateRip summary

Track 1 accurately ripped (confidence 14) [8D5DB4C2] (AR v2)
Track 2 accurately ripped (confidence 14) [AEB3D2BB] (AR v2)
Track 3 accurately ripped (confidence 14) [4547C285] (AR v2)
Track 4 accurately ripped (confidence 14) [E438B30C] (AR v2)
Track 5 accurately ripped (confidence 14) [7F0865D3] (AR v2)
Track 6 accurately ripped (confidence 14) [06C9F363] (AR v2)
Track 7 accurately ripped (confidence 14) [CCFBB65D] (AR v2)
Track 8 accurately ripped (confidence 14) [5187FA5D] (AR v2)
Track 9 accurately ripped (confidence 14) [D5FAF80B] (AR v2)
Track 10 accurately ripped (confidence 14) [6E3F872D] (AR v2)
Track 11 accurately ripped (confidence 14) [043946DE] (AR v2)
Track 12 accurately ripped (confidence 14) [DD4D8831] (AR v2)
Track 13 accurately ripped (confidence 14) [2F4C1BE2] (AR v2)
Track 14 accurately ripped (confidence 14) [F30DBEF9] (AR v2)
Track 15 accurately ripped (confidence 14) [CA694DE9] (AR v2)
Track 16 accurately ripped (confidence 14) [1073A61D] (AR v2)
Track 17 accurately ripped (confidence 13) [A72FD278] (AR v2)
Track 18 accurately ripped (confidence 13) [CE93DB1C] (AR v2)
Track 19 accurately ripped (confidence 13) [EC6616BE] (AR v2)
Track 20 accurately ripped (confidence 13) [A720E7EE] (AR v2)
Track 21 accurately ripped (confidence 13) [2527627A] (AR v2)
Track 22 accurately ripped (confidence 13) [368C892C] (AR v2)
Track 23 accurately ripped (confidence 13) [6A8ED76C] (AR v2)
Track 24 accurately ripped (confidence 13) [3141086F] (AR v2)
Track 25 accurately ripped (confidence 13) [91D299EF] (AR v2)
Track 26 accurately ripped (confidence 13) [B82FFE85] (AR v2)
Track 27 accurately ripped (confidence 13) [5651A67B] (AR v2)
Track 28 accurately ripped (confidence 13) [9CCB0670] (AR v2)
Track 29 accurately ripped (confidence 13) [4EA4F7D7] (AR v2)
Track 30 accurately ripped (confidence 13) [C0DD3CFB] (AR v2)
Track 31 accurately ripped (confidence 13) [EE890174] (AR v2)
Track 32 accurately ripped (confidence 13) [3582D413] (AR v2)
Track 33 accurately ripped (confidence 13) [513CF0F2] (AR v2)
Track 34 accurately ripped (confidence 13) [2966241A] (AR v2)

All tracks accurately ripped

End of status report

==== Log checksum FB9633362CEEEDF17F21223B6126C469C252D76C2B9B5780317ED1D1DF18D3AD ====

Exact Audio Copy V1.0 beta 3 from 29. August 2011

EAC extraction logfile from 20. December 2013, 17:30

The Beatles / On Air – Live At The BBC Volume 2 (Disc 2)

Used drive : PLEXTOR DVDR PX-891SA Adapter: 1 ID: 0

Read mode : Secure
Utilize accurate stream : Yes
Defeat audio cache : Yes
Make use of C2 pointers : No

Read offset correction : 6
Overread into Lead-In and Lead-Out : No
Fill up missing offset samples with silence : Yes
Delete leading and trailing silent blocks : No
Null samples used in CRC calculations : Yes
Used interface : Native Win32 interface for Win NT & 2000

Used output format : User Defined Encoder
Selected bitrate : 1024 kBit/s
Quality : High
Add ID3 tag : No
Command line compressor : C:\Program Files\Exact Audio Copy\Flac\flac.exe
Additional command line options : -V -8 -T “Genre=%genre%” -T “Artist=%artist%” -T “Title=%title%” -T “Album=%albumtitle%” -T “Date=%year%” -T “Tracknumber=%tracknr%” -T “Comment=%comment%” %source%

TOC of the extracted CD

Track | Start | Length | Start sector | End sector
———————————————————
1 | 0:00.00 | 2:35.55 | 0 | 11679
2 | 2:35.55 | 1:52.37 | 11680 | 20116
3 | 4:28.17 | 0:37.00 | 20117 | 22891
4 | 5:05.17 | 2:02.26 | 22892 | 32067
5 | 7:07.43 | 2:15.18 | 32068 | 42210
6 | 9:22.61 | 2:15.67 | 42211 | 52402
7 | 11:38.53 | 0:33.64 | 52403 | 54941
8 | 12:12.42 | 0:24.33 | 54942 | 56774
9 | 12:37.00 | 1:50.59 | 56775 | 65083
10 | 14:27.59 | 2:42.61 | 65084 | 77294
11 | 17:10.45 | 2:23.25 | 77295 | 88044
12 | 19:33.70 | 0:58.39 | 88045 | 92433
13 | 20:32.34 | 2:16.00 | 92434 | 102633
14 | 22:48.34 | 0:44.45 | 102634 | 105978
15 | 23:33.04 | 2:35.48 | 105979 | 117651
16 | 26:08.52 | 1:58.23 | 117652 | 126524
17 | 28:07.00 | 2:09.00 | 126525 | 136199
18 | 30:16.00 | 1:19.36 | 136200 | 142160
19 | 31:35.36 | 2:19.74 | 142161 | 152659
20 | 33:55.35 | 0:19.61 | 152660 | 154145
21 | 34:15.21 | 2:31.47 | 154146 | 165517
22 | 36:46.68 | 2:23.74 | 165518 | 176316
23 | 39:10.67 | 1:50.71 | 176317 | 184637
24 | 41:01.63 | 0:56.22 | 184638 | 188859
25 | 41:58.10 | 2:43.25 | 188860 | 201109
26 | 44:41.35 | 0:24.10 | 201110 | 202919
27 | 45:05.45 | 3:28.41 | 202920 | 218560
28 | 48:34.11 | 7:50.26 | 218561 | 253836
29 | 56:24.37 | 8:03.57 | 253837 | 290118

Range status and errors

Selected range

Filename I:\dafnaplus\2013 – The Beatles On Air – Live At The BBC Volume 2\Disc 2\The Beatles – On Air – Live At The BBC Volume 2 (Disc 2).wav

Peak level 99.8 %
Extraction speed 8.6 X
Range quality 100.0 %
Test CRC F271E73A
Copy CRC F271E73A
Copy OK

No errors occurred

AccurateRip summary

Track 1 accurately ripped (confidence 12) [91298F94] (AR v2)
Track 2 accurately ripped (confidence 12) [29CD483F] (AR v2)
Track 3 accurately ripped (confidence 12) [A5793A1B] (AR v2)
Track 4 accurately ripped (confidence 12) [9E2271AE] (AR v2)
Track 5 accurately ripped (confidence 12) [255FB71A] (AR v2)
Track 6 accurately ripped (confidence 12) [FBF93FA5] (AR v2)
Track 7 accurately ripped (confidence 12) [7C6A1A7C] (AR v2)
Track 8 accurately ripped (confidence 12) [CFF29641] (AR v2)
Track 9 accurately ripped (confidence 12) [3F52F4AC] (AR v2)
Track 10 accurately ripped (confidence 12) [C629F271] (AR v2)
Track 11 accurately ripped (confidence 12) [E3ACA388] (AR v2)
Track 12 accurately ripped (confidence 12) [A82DFAFF] (AR v2)
Track 13 accurately ripped (confidence 12) [285E676E] (AR v2)
Track 14 accurately ripped (confidence 12) [38163585] (AR v2)
Track 15 accurately ripped (confidence 12) [609DFC86] (AR v2)
Track 16 accurately ripped (confidence 12) [129250CB] (AR v2)
Track 17 accurately ripped (confidence 12) [F2F7851D] (AR v2)
Track 18 accurately ripped (confidence 12) [7D15C321] (AR v2)
Track 19 accurately ripped (confidence 12) [308213FE] (AR v2)
Track 20 accurately ripped (confidence 12) [CF8B276F] (AR v2)
Track 21 accurately ripped (confidence 12) [34372B35] (AR v2)
Track 22 accurately ripped (confidence 12) [8DE3161D] (AR v2)
Track 23 accurately ripped (confidence 12) [829B2919] (AR v2)
Track 24 accurately ripped (confidence 12) [9970A93B] (AR v2)
Track 25 accurately ripped (confidence 12) [5BA3577F] (AR v2)
Track 26 accurately ripped (confidence 12) [FC30E85C] (AR v2)
Track 27 accurately ripped (confidence 12) [03FB8990] (AR v2)
Track 28 accurately ripped (confidence 12) [BBB33A06] (AR v2)
Track 29 accurately ripped (confidence 12) [56341D89] (AR v2)

All tracks accurately ripped

End of status report

==== Log checksum FAFF1C669C71D44E2D306D34BBAB4293BE11E1097D3243A90000569F372CE485 ====

REM GENRE Rock
REM DATE 2013
REM DISCID DC0F7622
REM COMMENT “ExactAudioCopy v1.0b3”
CATALOG 0602537491759
PERFORMER “The Beatles”
TITLE “On Air – Live At The BBC Volume 2 (Disc 1)”
FILE “The Beatles – On Air – Live At The BBC Volume 2 (Disc 1).flac” WAVE
TRACK 01 AUDIO
TITLE “And Here We Are Again”
PERFORMER “The Beatles”
ISRC GBUM71306137
INDEX 01 00:00:00
TRACK 02 AUDIO
TITLE “Words Of Love”
PERFORMER “The Beatles”
ISRC GBUM71306180
INDEX 01 00:15:33
TRACK 03 AUDIO
TITLE “How About It, Gorgeous?”
PERFORMER “The Beatles”
ISRC GBUM71305860
INDEX 00 02:10:72
INDEX 01 02:11:14
TRACK 04 AUDIO
TITLE “Do You Want To Know A Secret”
PERFORMER “The Beatles”
ISRC GBUM71305861
INDEX 01 02:48:34
TRACK 05 AUDIO
TITLE “Lucille”
PERFORMER “The Beatles”
ISRC GBUM71306163
INDEX 01 04:35:73
TRACK 06 AUDIO
TITLE “Hey, Paul …”
PERFORMER “The Beatles”
ISRC GBUM71306149
INDEX 01 07:04:58
TRACK 07 AUDIO
TITLE “Anna (Go To Him)”
PERFORMER “The Beatles”
ISRC GBUM71305862
INDEX 01 07:25:63
TRACK 08 AUDIO
TITLE “Hello!”
PERFORMER “The Beatles”
ISRC GBUM71300007
INDEX 01 10:15:30
TRACK 09 AUDIO
TITLE “Please Please Me”
PERFORMER “The Beatles”
ISRC GBUM71306171
INDEX 01 10:34:21
TRACK 10 AUDIO
TITLE “Misery”
PERFORMER “The Beatles”
ISRC GBUM71306165
INDEX 01 12:29:54
TRACK 11 AUDIO
TITLE “I’m Talking About You”
PERFORMER “The Beatles”
ISRC GBUM71305864
INDEX 01 14:19:22
TRACK 12 AUDIO
TITLE “A Real Treat”
PERFORMER “The Beatles”
ISRC GBUM71306135
INDEX 01 16:11:32
TRACK 13 AUDIO
TITLE “Boys”
PERFORMER “The Beatles”
ISRC GBUM71305873
INDEX 01 16:48:11
TRACK 14 AUDIO
TITLE “Absolutely Fab”
PERFORMER “The Beatles”
ISRC GBUM71306136
INDEX 01 19:16:69
TRACK 15 AUDIO
TITLE “Chains”
PERFORMER “The Beatles”
ISRC GBUM71306141
INDEX 01 19:44:23
TRACK 16 AUDIO
TITLE “Ask Me Why”
PERFORMER “The Beatles”
ISRC GBUM71306138
INDEX 01 21:59:32
TRACK 17 AUDIO
TITLE “Till There Was You”
PERFORMER “The Beatles”
ISRC GBUM71305863
INDEX 01 23:53:48
TRACK 18 AUDIO
TITLE “Lend Me Your Comb”
PERFORMER “The Beatles”
ISRC GBUM71306158
INDEX 01 26:09:61
TRACK 19 AUDIO
TITLE “Lower 5E”
PERFORMER “The Beatles”
ISRC GBUM71306162
INDEX 01 27:56:50
TRACK 20 AUDIO
TITLE “The Hippy Hippy Shake”
PERFORMER “The Beatles”
ISRC GBUM71306178
INDEX 01 28:19:73
TRACK 21 AUDIO
TITLE “Roll Over Beethoven”
PERFORMER “The Beatles”
ISRC GBUM71306173
INDEX 01 30:06:08
TRACK 22 AUDIO
TITLE “There’s A Place”
PERFORMER “The Beatles”
ISRC GBUM71306179
INDEX 01 32:27:72
TRACK 23 AUDIO
TITLE “Bumper Bundle”
PERFORMER “The Beatles”
ISRC GBUM71305865
INDEX 01 34:16:69
TRACK 24 AUDIO
TITLE “P.S. I Love You”
PERFORMER “The Beatles”
ISRC GBUM71305866
INDEX 01 35:06:18
TRACK 25 AUDIO
TITLE “Please Mister Postman”
PERFORMER “The Beatles”
ISRC GBUM71305885
INDEX 01 37:05:43
TRACK 26 AUDIO
TITLE “Beautiful Dreamer”
PERFORMER “The Beatles”
ISRC GBUM71306139
INDEX 01 39:22:05
TRACK 27 AUDIO
TITLE “Devil In Her Heart”
PERFORMER “The Beatles”
ISRC GBUM71306142
INDEX 01 41:08:13
TRACK 28 AUDIO
TITLE “The 49 Weeks”
PERFORMER “The Beatles”
ISRC GBUM71306177
INDEX 01 43:29:63
TRACK 29 AUDIO
TITLE “Sure To Fall (In Love With You)”
PERFORMER “The Beatles”
ISRC GBUM71306175
INDEX 01 43:46:35
TRACK 30 AUDIO
TITLE “Never Mind, Eh?”
PERFORMER “The Beatles”
ISRC GBUM71306167
INDEX 01 46:07:09
TRACK 31 AUDIO
TITLE “Twist And Shout”
PERFORMER “The Beatles”
ISRC GBUM71305867
INDEX 01 46:41:30
TRACK 32 AUDIO
TITLE “Bye, Bye”
PERFORMER “The Beatles”
ISRC GBUM71306140
INDEX 01 49:06:54
TRACK 33 AUDIO
TITLE “John – Pop Profile”
PERFORMER “The Beatles”
ISRC GBUM71306156
INDEX 00 49:20:74
INDEX 01 49:30:59
TRACK 34 AUDIO
TITLE “George – Pop Profile”
PERFORMER “The Beatles”
ISRC GBUM71306144
INDEX 00 57:48:18
INDEX 01 57:52:50

REM GENRE Rock
REM DATE 2013
REM DISCID 990F1C1D
REM COMMENT “ExactAudioCopy v1.0b3”
CATALOG 0602537491766
PERFORMER “The Beatles”
TITLE “On Air – Live At The BBC Volume 2 (Disc 2)”
FILE “The Beatles – On Air – Live At The BBC Volume 2 (Disc 2).flac” WAVE
TRACK 01 AUDIO
TITLE “I Saw Her Standing There”
PERFORMER “The Beatles”
ISRC GBUM71305859
INDEX 01 00:00:00
TRACK 02 AUDIO
TITLE “Glad All Over”
PERFORMER “The Beatles”
ISRC GBUM71306145
INDEX 00 02:35:30
INDEX 01 02:35:55
TRACK 03 AUDIO
TITLE “Lift Lid Again”
PERFORMER “The Beatles”
ISRC GBUM71306160
INDEX 01 04:28:17
TRACK 04 AUDIO
TITLE “I’ll Get You”
PERFORMER “The Beatles”
ISRC GBUM71306153
INDEX 01 05:05:17
TRACK 05 AUDIO
TITLE “She Loves You”
PERFORMER “The Beatles”
ISRC GBUM71306174
INDEX 01 07:07:43
TRACK 06 AUDIO
TITLE “Memphis, Tennessee”
PERFORMER “The Beatles”
ISRC GBUM71306164
INDEX 01 09:22:61
TRACK 07 AUDIO
TITLE “Happy Birthday Dear Saturday Club”
PERFORMER “The Beatles”
ISRC GBUM71306147
INDEX 01 11:38:53
TRACK 08 AUDIO
TITLE “Now Hush, Hush”
PERFORMER “The Beatles”
ISRC GBUM71306168
INDEX 01 12:12:42
TRACK 09 AUDIO
TITLE “From Me To You”
PERFORMER “The Beatles”
ISRC GBUM71306143
INDEX 01 12:37:00
TRACK 10 AUDIO
TITLE “Money (That’s What I Want)”
PERFORMER “The Beatles”
ISRC GBUM71306166
INDEX 01 14:27:59
TRACK 11 AUDIO
TITLE “I Want To Hold Your Hand”
PERFORMER “The Beatles”
ISRC GBUM71305870
INDEX 01 17:10:45
TRACK 12 AUDIO
TITLE “Brian Bathtubes”
PERFORMER “The Beatles”
ISRC GBUM71305868
INDEX 01 19:33:70
TRACK 13 AUDIO
TITLE “This Boy”
PERFORMER “The Beatles”
ISRC GBUM71305869
INDEX 01 20:32:34
TRACK 14 AUDIO
TITLE “If I Wasn’t In America”
PERFORMER “The Beatles”
ISRC GBUM71306155
INDEX 01 22:48:34
TRACK 15 AUDIO
TITLE “I Got A Woman”
PERFORMER “The Beatles”
ISRC GBUM71306151
INDEX 01 23:33:04
TRACK 16 AUDIO
TITLE “Long Tall Sally”
PERFORMER “The Beatles”
ISRC GBUM71306161
INDEX 01 26:08:52
TRACK 17 AUDIO
TITLE “If I Fell”
PERFORMER “The Beatles”
ISRC GBUM71306154
INDEX 01 28:07:00
TRACK 18 AUDIO
TITLE “A Hard Job Writing Them”
PERFORMER “The Beatles”
ISRC GBUM71306134
INDEX 01 30:16:00
TRACK 19 AUDIO
TITLE “And I Love Her”
PERFORMER “The Beatles”
ISRC GBUM71305872
INDEX 01 31:35:36
TRACK 20 AUDIO
TITLE “Oh, Can’t We? Yes We Can”
PERFORMER “The Beatles”
ISRC GBUM71306169
INDEX 01 33:55:35
TRACK 21 AUDIO
TITLE “You Can’t Do That”
PERFORMER “The Beatles”
ISRC GBUM71306181
INDEX 01 34:15:21
TRACK 22 AUDIO
TITLE “Honey Don’t”
PERFORMER “The Beatles”
ISRC GBUM71306133
INDEX 01 36:46:68
TRACK 23 AUDIO
TITLE “I’ll Follow The Sun”
PERFORMER “The Beatles”
ISRC GBUM71306152
INDEX 01 39:10:67
TRACK 24 AUDIO
TITLE “Green With Black Shutters”
PERFORMER “The Beatles”
ISRC GBUM71306146
INDEX 01 41:01:63
TRACK 25 AUDIO
TITLE “Kansas City + Hey-Hey-Hey-Hey!”
PERFORMER “The Beatles”
ISRC GBUM71306157
INDEX 01 41:58:10
TRACK 26 AUDIO
TITLE “That’s What We’re Here For”
PERFORMER “The Beatles”
ISRC GBUM71306176
INDEX 01 44:41:35
TRACK 27 AUDIO
TITLE “I Feel Fine (Studio Outtake Sequence)”
PERFORMER “The Beatles”
ISRC GBUM71306150
INDEX 01 45:05:45
TRACK 28 AUDIO
TITLE “Paul – Pop Profile”
PERFORMER “The Beatles”
ISRC GBUM71306170
INDEX 00 48:23:11
INDEX 01 48:34:11
TRACK 29 AUDIO
TITLE “Ringo – Pop Profile”
PERFORMER “The Beatles”
ISRC GBUM71306172
INDEX 00 56:19:63
INDEX 01 56:24:37


Leave a Reply

Your email address will not be published. Required fields are marked *

Enter the text from the image below
 

This site uses Akismet to reduce spam. Learn how your comment data is processed.