The Beatles – Meet The Beatles! (Remastered Japanese Edition)




Artist: The Beatles
Year: 1964/2014
Genre: Rock
Notes: Discogs
Add. Notes: Remastered Japanese Edition
Cover incl.: Yes
Encoder: FLAC
Bitrate: ~700 kBit/s (44.1 kHz/16 Bit/s)
Log & Cue incl.: Yes
Size: 129,65 MB
Password: “slam” (without ” “)


All Downloads/Hosters are compatible

Download 1
KatFile.com
Turbobit.net
FileFactory.com
Rapidgator.net
Download 2
KatFile.com
Turbobit.net
FileFactory.com
Rapidgator.net

Tracklist:

1 I Want To Hold Your Hand 
2 She Loves You 
3 From Me To You 
4 Twist And Shout 
5 Love Me Do 
6 Baby It's You 
7 Don't Bother Me 
8 Please Please Me 
9 I Saw Her Standing There 
10 P. S. I Love You 
11 Little Child 
12 All My Loving 
13 Hold Me Tight 
14 Please Mister Postman

EAC-Log, CUE-Sheed & NFO:

Click to open spoiler
Exact Audio Copy V1.0 beta 3 from 29. August 2011

EAC extraction logfile from 16. August 2014, 8:37

The Beatles / Meet The Beatles (UICY-76429)

Used drive : PLEXTOR DVDR PX-891SA Adapter: 3 ID: 0

Read mode : Secure
Utilize accurate stream : Yes
Defeat audio cache : Yes
Make use of C2 pointers : No

Read offset correction : 6
Overread into Lead-In and Lead-Out : No
Fill up missing offset samples with silence : Yes
Delete leading and trailing silent blocks : No
Null samples used in CRC calculations : Yes
Used interface : Native Win32 interface for Win NT & 2000

Used output format : User Defined Encoder
Selected bitrate : 1024 kBit/s
Quality : High
Add ID3 tag : No
Command line compressor : C:\Program Files\Exact Audio Copy\Flac\flac.exe
Additional command line options : -V -8 -T “Genre=%genre%” -T “Artist=%artist%” -T “Title=%title%” -T “Album=%albumtitle%” -T “Date=%year%” -T “Tracknumber=%tracknr%” -T “Comment=%comment%” %source%

TOC of the extracted CD

Track | Start | Length | Start sector | End sector
———————————————————
1 | 0:00.00 | 2:27.13 | 0 | 11037
2 | 2:27.13 | 2:21.32 | 11038 | 21644
3 | 4:48.45 | 1:57.01 | 21645 | 30420
4 | 6:45.46 | 2:34.03 | 30421 | 41973
5 | 9:19.49 | 2:19.56 | 41974 | 52454
6 | 11:39.30 | 2:42.29 | 52455 | 64633
7 | 14:21.59 | 2:31.26 | 64634 | 75984
8 | 16:53.10 | 2:05.54 | 75985 | 85413
9 | 18:58.64 | 2:57.01 | 85414 | 98689
10 | 21:55.65 | 2:07.62 | 98690 | 108276
11 | 24:03.52 | 1:49.46 | 108277 | 116497
12 | 25:53.23 | 2:12.41 | 116498 | 126438
13 | 28:05.64 | 2:34.42 | 126439 | 138030
14 | 30:40.31 | 2:41.06 | 138031 | 150111

Range status and errors

Selected range

Filename H:\dafnaplus\The Japan Box\Meet The Beatles\The Beatles – Meet The Beatles (UICY-76429).wav

Peak level 99.8 %
Extraction speed 7.7 X
Range quality 100.0 %
Test CRC 7DF0FF0F
Copy CRC 7DF0FF0F
Copy OK

No errors occurred

AccurateRip summary

Track 1 accurately ripped (confidence 3) [2AAD89CE] (AR v2)
Track 2 accurately ripped (confidence 3) [7EFDD1D0] (AR v2)
Track 3 accurately ripped (confidence 3) [95712D27] (AR v2)
Track 4 accurately ripped (confidence 3) [09A3D303] (AR v2)
Track 5 accurately ripped (confidence 3) [44F80625] (AR v2)
Track 6 accurately ripped (confidence 3) [94998AC0] (AR v2)
Track 7 accurately ripped (confidence 3) [7CF980C7] (AR v2)
Track 8 accurately ripped (confidence 3) [3CE7D8A3] (AR v2)
Track 9 accurately ripped (confidence 3) [2F6E7205] (AR v2)
Track 10 accurately ripped (confidence 3) [17073476] (AR v2)
Track 11 accurately ripped (confidence 3) [25816A6D] (AR v2)
Track 12 accurately ripped (confidence 3) [2C1072F4] (AR v2)
Track 13 accurately ripped (confidence 3) [96ADAC2F] (AR v2)
Track 14 accurately ripped (confidence 3) [54F8DBA7] (AR v2)

All tracks accurately ripped

End of status report

==== Log checksum B15E897E97E3F428ECDD74D60D6EA8F0B4CEDF62E29B22D53C0BEBC356B9E3A2 ====

REM GENRE Rock
REM DATE 2014
REM DISCID A707D10E
REM COMMENT “ExactAudioCopy v1.0b3”
PERFORMER “The Beatles”
TITLE “Meet The Beatles (UICY-76429)”
FILE “The Beatles – Meet The Beatles (UICY-76429).flac” WAVE
TRACK 01 AUDIO
TITLE “I Want To Hold Your Hand ”
PERFORMER “The Beatles”
INDEX 01 00:00:00
TRACK 02 AUDIO
TITLE “She Loves You”
PERFORMER “The Beatles”
INDEX 01 02:27:13
TRACK 03 AUDIO
TITLE “From Me To You ”
PERFORMER “The Beatles”
INDEX 01 04:48:45
TRACK 04 AUDIO
TITLE “Twist And Shout ”
PERFORMER “The Beatles”
INDEX 01 06:45:46
TRACK 05 AUDIO
TITLE “Love Me Do ”
PERFORMER “The Beatles”
INDEX 01 09:19:49
TRACK 06 AUDIO
TITLE “Baby It’s You ”
PERFORMER “The Beatles”
INDEX 01 11:39:30
TRACK 07 AUDIO
TITLE “Don’t Bother Me ”
PERFORMER “The Beatles”
INDEX 01 14:21:59
INDEX 02 16:53:10
TRACK 08 AUDIO
TITLE “Please Please Me ”
PERFORMER “The Beatles”
INDEX 01 16:53:10
TRACK 09 AUDIO
TITLE “I Saw Her Standing There ”
PERFORMER “The Beatles”
INDEX 01 18:58:64
TRACK 10 AUDIO
TITLE “P.S. I Love You ”
PERFORMER “The Beatles”
INDEX 01 21:55:65
TRACK 11 AUDIO
TITLE “Little Child ”
PERFORMER “The Beatles”
INDEX 01 24:03:52
TRACK 12 AUDIO
TITLE “All My Loving ”
PERFORMER “The Beatles”
INDEX 01 25:53:23
TRACK 13 AUDIO
TITLE “Hold Me Tight ”
PERFORMER “The Beatles”
INDEX 01 28:05:64
TRACK 14 AUDIO
TITLE “Please Mister Postman ”
PERFORMER “The Beatles”
INDEX 01 30:40:31


Leave a Reply

Your email address will not be published. Required fields are marked *

This site uses Akismet to reduce spam. Learn how your comment data is processed.