The Beatles – Magical Mystery Tour (Remastered)




[Total: 0    Average: 0/5]

Artist: The Beatles
Year: 1967/1987
Genre: Rock
Notes: Discogs
Add. Notes: Remastered
Cover incl.: Yes
Encoder: FLAC
Bitrate: ~800 kBit/s (44.1 kHz/16 Bit/s)
Log & Cue incl.: Yes
Size: 256 MB
Password: “slam” (without ” “)


All Downloads/Hosters are compatible

Download 1
KatFile.com
Turbobit.net
FileFactory.com
Rapidgator.net
Download 2
KatFile.com
Turbobit.net
FileFactory.com
Rapidgator.net

Tracklist:

1 - Magical Mystery Tour - 2:51
2 - The Fool On The Hill - 3:00
3 - Flying - 2:17
4 - Blue Jay Way - 3:56
5 - Your Mother Should Know - 2:29
6 - I Am The Walrus - 4:37
7 - Hello Goodbye - 3:31
8 - Strawberry Fields Forever - 4:10
9 - Penny Lane - 3:03
10 - Baby You're A Rich Man - 3:03
11 - All You Need Is Love - 3:52

EAC-Log, CUE-Sheed & NFO:

Click to open spoiler
Exact Audio Copy V1.3 from 2. September 2016

EAC extraction logfile from 11. July 2017, 21:59

The Beatles / Magical Mystery Tour (CDP 7 48062 2)

Used drive : PLEXTOR DVDR PX-891SA Adapter: 1 ID: 0

Read mode : Secure
Utilize accurate stream : Yes
Defeat audio cache : Yes
Make use of C2 pointers : No

Read offset correction : 6
Overread into Lead-In and Lead-Out : No
Fill up missing offset samples with silence : Yes
Delete leading and trailing silent blocks : No
Null samples used in CRC calculations : Yes
Used interface : Native Win32 interface for Win NT & 2000

Used output format : User Defined Encoder
Selected bitrate : 128 kBit/s
Quality : High
Add ID3 tag : No
Command line compressor : C:\Program Files (x86)\Exact Audio Copy\Flac\flac.exe
Additional command line options : -V -8 -T “Genre=%genre%” -T “Artist=%artist%” -T “Title=%title%” -T “Album=%albumtitle%” -T “Date=%year%” -T “Tracknumber=%tracknr%” -T “Comment=%comment%” %source%

TOC of the extracted CD

Track | Start | Length | Start sector | End sector
———————————————————
1 | 0:00.33 | 2:51.62 | 33 | 12919
2 | 2:52.20 | 3:00.13 | 12920 | 26432
3 | 5:52.33 | 2:16.72 | 26433 | 36704
4 | 8:09.30 | 3:56.53 | 36705 | 54457
5 | 12:06.08 | 2:29.45 | 54458 | 65677
6 | 14:35.53 | 4:37.05 | 65678 | 86457
7 | 19:12.58 | 3:31.35 | 86458 | 102317
8 | 22:44.18 | 4:10.37 | 102318 | 121104
9 | 26:54.55 | 3:03.28 | 121105 | 134857
10 | 29:58.08 | 3:03.57 | 134858 | 148639
11 | 33:01.65 | 3:48.33 | 148640 | 165772

Range status and errors

Selected range

Filename H:\dafnaplus\Magical Mystery Tour\The Beatles – Magical Mystery Tour (CDP 7 48062 2).wav

Peak level 98.9 %
Extraction speed 6.6 X
Range quality 99.9 %
Test CRC 95129EAF
Copy CRC 95129EAF
Copy OK

No errors occurred

AccurateRip summary

Track 1 accurately ripped (confidence 200) [727173C5] (AR v2)
Track 2 accurately ripped (confidence 200) [5036AFF9] (AR v2)
Track 3 accurately ripped (confidence 200) [80AD99D0] (AR v2)
Track 4 accurately ripped (confidence 200) [AB0AB663] (AR v2)
Track 5 accurately ripped (confidence 200) [33EC0241] (AR v2)
Track 6 accurately ripped (confidence 200) [1C3FA795] (AR v2)
Track 7 accurately ripped (confidence 200) [7AA553A2] (AR v2)
Track 8 accurately ripped (confidence 200) [A229BC99] (AR v2)
Track 9 accurately ripped (confidence 200) [FE8D425D] (AR v2)
Track 10 accurately ripped (confidence 200) [66F42F9B] (AR v2)
Track 11 accurately ripped (confidence 200) [EE1F4160] (AR v2)

All tracks accurately ripped

End of status report

—- CUETools DB Plugin V2.1.6

[CTDB TOCID: nuWEMucOwOoDhNYtz.49Jow5H5o-] found
Submit result: nuWEMucOwOoDhNYtz.49Jow5H5o- has been confirmed
Track | CTDB Status
1 | (785/914) Accurately ripped, or (4/914) differs in 1 samples @02:32:72, or (1/914) differs in 12082 samples @00:26:03-00:26:08,00:47:22-00:47:28, or (91/914) differs in 1 samples @02:32:72, or (3/914) differs in 15 samples @00:02:12,00:12:21
2 | (894/914) Accurately ripped
3 | (894/914) Accurately ripped
4 | (898/914) Accurately ripped
5 | (894/914) Accurately ripped
6 | (894/914) Accurately ripped
7 | (903/914) Accurately ripped
8 | (891/914) Accurately ripped
9 | (896/914) Accurately ripped
10 | (896/914) Accurately ripped
11 | (897/914) Accurately ripped

==== Log checksum 04F86C39E7FB6AF61B028393A5955CD335549AEB22F3CB3CA2B67051D9370811 ====

REM GENRE Rock
REM DATE 1987
REM DISCID 9608A20B
REM COMMENT “ExactAudioCopy v1.3”
PERFORMER “The Beatles”
TITLE “Magical Mystery Tour (CDP 7 48062 2)”
REM COMPOSER “”
FILE “The Beatles – Magical Mystery Tour (CDP 7 48062 2).flac” WAVE
TRACK 01 AUDIO
TITLE “Magical Mystery Tour”
PERFORMER “The Beatles”
REM COMPOSER “”
INDEX 00 00:00:00
INDEX 01 00:00:33
TRACK 02 AUDIO
TITLE “The Fool On The Hill”
PERFORMER “The Beatles”
REM COMPOSER “”
INDEX 00 02:49:35
INDEX 01 02:52:20
TRACK 03 AUDIO
TITLE “Flying”
PERFORMER “The Beatles”
REM COMPOSER “”
INDEX 00 05:49:68
INDEX 01 05:52:33
TRACK 04 AUDIO
TITLE “Blue Jay Way”
PERFORMER “The Beatles”
REM COMPOSER “”
INDEX 00 08:06:50
INDEX 01 08:09:30
TRACK 05 AUDIO
TITLE “Your Mother Should Know”
PERFORMER “The Beatles”
REM COMPOSER “”
INDEX 00 12:03:65
INDEX 01 12:06:08
TRACK 06 AUDIO
TITLE “I Am The Walrus”
PERFORMER “The Beatles”
REM COMPOSER “”
INDEX 00 14:33:28
INDEX 01 14:35:53
TRACK 07 AUDIO
TITLE “Hello Goodbye”
PERFORMER “The Beatles”
REM COMPOSER “”
INDEX 00 19:10:15
INDEX 01 19:12:58
TRACK 08 AUDIO
TITLE “Strawberry Fields Forever”
PERFORMER “The Beatles”
REM COMPOSER “”
INDEX 00 22:41:30
INDEX 01 22:44:18
TRACK 09 AUDIO
TITLE “Penny Lane”
PERFORMER “The Beatles”
REM COMPOSER “”
INDEX 00 26:51:53
INDEX 01 26:54:55
TRACK 10 AUDIO
TITLE “Baby You’re A Rich Man”
PERFORMER “The Beatles”
REM COMPOSER “”
INDEX 00 29:55:10
INDEX 01 29:58:08
TRACK 11 AUDIO
TITLE “All You Need Is Love”
PERFORMER “The Beatles”
REM COMPOSER “”
INDEX 00 32:59:23
INDEX 01 33:01:65


Spread the Download

Leave a Reply

Your email address will not be published. Required fields are marked *

Enter the text from the image below
 

This site uses Akismet to reduce spam. Learn how your comment data is processed.