The Beatles – Magical Mystery Tour (Remastered Japanese Edition)




Artist: The Beatles
Year: 1967/1998
Genre: Rock
Notes: Discogs
Add. Notes: Remastered Japanese Edition
Cover incl.: Yes
Encoder: FLAC
Bitrate: ~800 kBit/s (44.1 kHz/16 Bit/s)
Log & Cue incl.: Yes
Size: 290,73 MB
Password: “slam” (without ” “)


All Downloads/Hosters are compatible

Download 1
Turbobit.net
KatFile.com
Rapidgator.net
ddl.to
Download 2
Turbobit.net
KatFile.com
Rapidgator.net
ddl.to

Tracklist:

1 - Magical Mystery Tour - 2:48
2 - The Fool On The Hill - 3:00
3 - Flying - 2:16
4 - Blue Jay Way - 3:50
5 - Your Mother Should Know - 2:33
6 - I Am The Walrus - 4:35
7 - Hello Goodbye - 3:24
8 - Strawberry Fields Forever - 4:05
9 - Penny Lane - 2:57
10 - Baby You're A Rich Man - 3:07
11 - All You Need Is Love - 3:57

EAC-Log, CUE-Sheed & NFO:

Click to open spoiler
Exact Audio Copy V1.0 beta 3 from 29. August 2011

EAC extraction logfile from 28. December 2013, 18:23

The Beatles / Magical Mystery Tour

Used drive : PLEXTOR DVDR PX-891SA Adapter: 3 ID: 0

Read mode : Secure
Utilize accurate stream : Yes
Defeat audio cache : Yes
Make use of C2 pointers : No

Read offset correction : 6
Overread into Lead-In and Lead-Out : No
Fill up missing offset samples with silence : Yes
Delete leading and trailing silent blocks : No
Null samples used in CRC calculations : Yes
Used interface : Native Win32 interface for Win NT & 2000

Used output format : User Defined Encoder
Selected bitrate : 1024 kBit/s
Quality : High
Add ID3 tag : No
Command line compressor : C:\Program Files\Exact Audio Copy\Flac\flac.exe
Additional command line options : -V -8 -T “Genre=%genre%” -T “Artist=%artist%” -T “Title=%title%” -T “Album=%albumtitle%” -T “Date=%year%” -T “Tracknumber=%tracknr%” -T “Comment=%comment%” %source%

TOC of the extracted CD

Track | Start | Length | Start sector | End sector
———————————————————
1 | 0:00.32 | 2:51.63 | 32 | 12919
2 | 2:52.20 | 3:00.12 | 12920 | 26431
3 | 5:52.32 | 2:16.73 | 26432 | 36704
4 | 8:09.30 | 3:56.52 | 36705 | 54456
5 | 12:06.07 | 2:29.45 | 54457 | 65676
6 | 14:35.52 | 4:37.05 | 65677 | 86456
7 | 19:12.57 | 3:31.35 | 86457 | 102316
8 | 22:44.17 | 4:10.38 | 102317 | 121104
9 | 26:54.55 | 3:03.27 | 121105 | 134856
10 | 29:58.07 | 3:03.58 | 134857 | 148639
11 | 33:01.65 | 3:48.32 | 148640 | 165771

Range status and errors

Selected range

Filename H:\dafnaplus\Magical Mystery Tour (TOCP-51124)\The Beatles – Magical Mystery Tour.wav

Peak level 98.9 %
Extraction speed 5.3 X
Range quality 100.0 %
Test CRC CF607745
Copy CRC CF607745
Copy OK

No errors occurred

AccurateRip summary

Track 1 accurately ripped (confidence 3) [6E723BAC] (AR v1)
Track 2 accurately ripped (confidence 2) [070175CF] (AR v1)
Track 3 accurately ripped (confidence 2) [53E4301F] (AR v1)
Track 4 accurately ripped (confidence 2) [630047B5] (AR v1)
Track 5 accurately ripped (confidence 2) [942DF354] (AR v1)
Track 6 accurately ripped (confidence 2) [A0A5C931] (AR v1)
Track 7 accurately ripped (confidence 2) [C89E82B4] (AR v1)
Track 8 accurately ripped (confidence 2) [8CDFE706] (AR v1)
Track 9 accurately ripped (confidence 2) [2A6714B9] (AR v1)
Track 10 accurately ripped (confidence 2) [1529D9D9] (AR v1)
Track 11 accurately ripped (confidence 2) [7078EEE2] (AR v1)

All tracks accurately ripped

End of status report

==== Log checksum E9938FEB18E4A46BE3763C556E44CE4109E78B149D5C00B0A07F35ABD0AFB19F ====

REM GENRE Rock
REM DATE 1998
REM DISCID 9608A20B
REM COMMENT “ExactAudioCopy v1.0b3”
PERFORMER “The Beatles”
TITLE “Magical Mystery Tour”
FILE “The Beatles – Magical Mystery Tour.flac” WAVE
TRACK 01 AUDIO
TITLE “Magical Mystery Tour”
PERFORMER “The Beatles”
INDEX 00 00:00:00
INDEX 01 00:00:32
TRACK 02 AUDIO
TITLE “The Fool On The Hill”
PERFORMER “The Beatles”
INDEX 00 02:49:35
INDEX 01 02:52:20
TRACK 03 AUDIO
TITLE “Flying”
PERFORMER “The Beatles”
INDEX 00 05:49:67
INDEX 01 05:52:32
TRACK 04 AUDIO
TITLE “Blue Jay Way”
PERFORMER “The Beatles”
INDEX 00 08:06:50
INDEX 01 08:09:30
TRACK 05 AUDIO
TITLE “Your Mother Should Know”
PERFORMER “The Beatles”
INDEX 00 12:03:65
INDEX 01 12:06:07
TRACK 06 AUDIO
TITLE “I Am The Walrus”
PERFORMER “The Beatles”
INDEX 00 14:33:27
INDEX 01 14:35:52
TRACK 07 AUDIO
TITLE “Hello Goodbye”
PERFORMER “The Beatles”
INDEX 00 19:10:15
INDEX 01 19:12:57
TRACK 08 AUDIO
TITLE “Strawberry Fields Forever”
PERFORMER “The Beatles”
INDEX 00 22:41:30
INDEX 01 22:44:17
TRACK 09 AUDIO
TITLE “Penny Lane”
PERFORMER “The Beatles”
INDEX 00 26:51:52
INDEX 01 26:54:55
TRACK 10 AUDIO
TITLE “Baby You’re A Rich Man”
PERFORMER “The Beatles”
INDEX 00 29:55:10
INDEX 01 29:58:07
TRACK 11 AUDIO
TITLE “All You Need Is Love”
PERFORMER “The Beatles”
INDEX 00 32:59:22
INDEX 01 33:01:65


Leave a Reply

Your email address will not be published. Required fields are marked *

This site uses Akismet to reduce spam. Learn how your comment data is processed.