The Beatles – Live At The BBC (Remastered)




Artist: The Beatles
Year: 1994
Genre: Rock
Notes: Discogs
Add. Notes: Remastered
Cover incl.: Yes
Encoder: FLAC
Bitrate: ~700 kBit/s (44.1 kHz/16 Bit/s)
Log & Cue incl.: Yes
Size: 598,7 MB
Password: “slam” (without ” “)


All Downloads/Hosters are compatible

Download 1
Turbobit.net
KatFile.com
Rapidgator.net
Download 2
Turbobit.net
KatFile.com
Rapidgator.net

Tracklist:

1-01 - Beatle Greetings (Speech) - 0:13
1-02 - From Us To You - 0:27
1-03 - Riding On A Bus (Speech) - 0:53
1-04 - I Got A Woman - 2:48
1-05 - Too Much Monkey Business - 2:05
1-06 - Keep Your Hands Off My Baby - 2:30
1-07 - I'll Be On My Way - 1:57
1-08 - Young Blood - 1:56
1-09 - A Shot Of Rhythm And Blues - 2:14
1-10 - Sure To Fall (In Love With You) - 2:07
1-11 - Some Other Guy - 2:00
1-12 - Thank You Girl - 2:01
1-13 - Sha La La La La! (Speech) - 0:27
1-14 - Baby It's You - 2:43
1-15 - That's All Right (Mama) - 2:53
1-16 - Carol - 2:34
1-17 - Soldier Of Love - 1:59
1-18 - A Little Rhyme (Speech) - 0:25
1-19 - Clarabella - 2:39
1-20 - I'm Gonna Sit Right Down And Cry (Over You) - 
2:01
1-21 - Crying, Waiting, Hoping - 2:09
1-22 - Dear Wack! (Speech) - 0:42
1-23 - You Really Got A Hold On Me - 2:37
1-24 - To Know Her Is To Love Her - 2:49
1-25 - Taste Of Honey - 1:57
1-26 - Long Tall Sally - 1:52
1-27 - I Saw Her Standing There - 2:31
1-28 - The Honeymoon Song - 1:39
1-29 - Johnny B Goode - 2:51
1-30 - Memphis, Tennessee - 2:12
1-31 - Lucille - 1:49
1-32 - Can't Buy Me Love - 2:06
1-33 - From Fluff To You (Speech) - 0:28
1-34 - Till There Was You - 2:13

2-01 - Crinsk Dee Night (Speech) - 1:04
2-02 - A Hard Day's Night - 2:24
2-03 - Have A Banana! (Speech) - 0:21
2-04 - I Wanna Be Your Man - 2:09
2-05 - Just A Rumour (Speech) - 0:20
2-06 - Roll Over Beethoven - 2:15
2-07 - All My Loving - 2:04
2-08 - Things We Said Today - 2:18
2-09 - She's A Woman - 3:14
2-10 - Sweet Little Sixteen - 2:20
2-11 - 1822! (Speech) - 0:10
2-12 - Lonesome Tears In My Eyes - 2:36
2-13 - Nothin' Shakin' - 1:59
2-14 - The Hippy Hippy Shake - 1:49
2-15 - Glad All Over - 1:51
2-16 - I Just Don't Understand - 2:46
2-17 - So How Come - 2:53
2-18 - I Feel Fine - 2:12
2-19 - I'm A Loser - 2:32
2-20 - Everybody's Trying To Be My Baby - 2:20
2-21 - Rock And Roll Music - 2:00
2-22 - Ticket To Ride - 2:56
2-23 - Dizzy Miss Lizzy - 2:42
2-24 - Kansas City/Hey! Hey! Hey! Hey! (Medley) - 2:37
2-25 - Set Fire To That Lot! (Speech) - 0:27
2-26 - Matchbox - 1:57
2-27 - I Forgot To Remember To Forget - 2:08
2-28 - Love These Goon Shows! (Speech) - 0:26
2-29 - I Got To Find My Baby - 1:55
2-30 - Ooh! My Soul - 1:36
2-31 - Ooh! My Arms (Speech) - 0:35
2-32 - Don't Ever Change - 2:02
2-33 - Slow Down - 2:36
2-34 - Honey Don't - 2:11
2-35 - Love Me Do - 2:29

EAC-Log, CUE-Sheed & NFO:

Click to open spoiler
Exact Audio Copy V1.3 from 2. September 2016

EAC extraction logfile from 20. July 2018, 19:33

The Beatles / Live At The BBC (Disc 1) (CDP 7243 8 31796 2 6)

Used drive : PLEXTOR DVDR PX-891SA Adapter: 1 ID: 0

Read mode : Secure
Utilize accurate stream : Yes
Defeat audio cache : Yes
Make use of C2 pointers : No

Read offset correction : 6
Overread into Lead-In and Lead-Out : No
Fill up missing offset samples with silence : Yes
Delete leading and trailing silent blocks : No
Null samples used in CRC calculations : Yes
Used interface : Native Win32 interface for Win NT & 2000

Used output format : User Defined Encoder
Selected bitrate : 768 kBit/s
Quality : High
Add ID3 tag : No
Command line compressor : C:\Program Files (x86)\Exact Audio Copy\Flac\flac.exe
Additional command line options : -V -8 -T “Genre=%genre%” -T “Artist=%artist%” -T “Title=%title%” -T “Album=%albumtitle%” -T “Date=%year%” -T “Tracknumber=%tracknr%” -T “Comment=%comment%” %source%

TOC of the extracted CD

Track | Start | Length | Start sector | End sector
———————————————————
1 | 0:00.00 | 0:13.52 | 0 | 1026
2 | 0:13.52 | 0:27.28 | 1027 | 3079
3 | 0:41.05 | 0:53.67 | 3080 | 7121
4 | 1:34.72 | 2:48.15 | 7122 | 19736
5 | 4:23.12 | 2:05.60 | 19737 | 29171
6 | 6:28.72 | 2:30.00 | 29172 | 40421
7 | 8:58.72 | 1:57.60 | 40422 | 49256
8 | 10:56.57 | 1:56.60 | 49257 | 58016
9 | 12:53.42 | 2:14.70 | 58017 | 68136
10 | 15:08.37 | 2:07.40 | 68137 | 77701
11 | 17:16.02 | 2:00.53 | 77702 | 86754
12 | 19:16.55 | 2:01.37 | 86755 | 95866
13 | 21:18.17 | 0:27.48 | 95867 | 97939
14 | 21:45.65 | 2:43.65 | 97940 | 110229
15 | 24:29.55 | 2:53.70 | 110230 | 123274
16 | 27:23.50 | 2:34.52 | 123275 | 134876
17 | 29:58.27 | 1:59.58 | 134877 | 143859
18 | 31:58.10 | 0:25.67 | 143860 | 145801
19 | 32:24.02 | 2:39.20 | 145802 | 157746
20 | 35:03.22 | 2:01.33 | 157747 | 166854
21 | 37:04.55 | 2:09.32 | 166855 | 176561
22 | 39:14.12 | 0:42.18 | 176562 | 179729
23 | 39:56.30 | 2:37.37 | 179730 | 191541
24 | 42:33.67 | 2:49.13 | 191542 | 204229
25 | 45:23.05 | 1:57.37 | 204230 | 213041
26 | 47:20.42 | 1:52.70 | 213042 | 221511
27 | 49:13.37 | 2:31.48 | 221512 | 232884
28 | 51:45.10 | 1:39.30 | 232885 | 240339
29 | 53:24.40 | 2:51.22 | 240340 | 253186
30 | 56:15.62 | 2:12.63 | 253187 | 263149
31 | 58:28.50 | 1:49.10 | 263150 | 271334
32 | 60:17.60 | 2:06.32 | 271335 | 280816
33 | 62:24.17 | 0:28.15 | 280817 | 282931
34 | 62:52.32 | 2:13.33 | 282932 | 292939

Range status and errors

Selected range

Filename H:\dafnaplus\Beatles – Live At The BBC\Disc 1\The Beatles – Live At The BBC (Disc 1) (CDP 7243 8 31796 2 6).wav

Peak level 98.1 %
Extraction speed 6.1 X
Range quality 99.9 %
Test CRC 275A1EC4
Copy CRC 275A1EC4
Copy OK

No errors occurred

AccurateRip summary

Track 1 accurately ripped (confidence 130) [E805EE7C] (AR v2)
Track 2 accurately ripped (confidence 132) [16564A5A] (AR v2)
Track 3 accurately ripped (confidence 131) [50F131C2] (AR v2)
Track 4 accurately ripped (confidence 133) [BB4CE6AE] (AR v2)
Track 5 accurately ripped (confidence 132) [66700530] (AR v2)
Track 6 accurately ripped (confidence 132) [F811D4A4] (AR v2)
Track 7 accurately ripped (confidence 132) [30E62940] (AR v2)
Track 8 accurately ripped (confidence 132) [4012B73D] (AR v2)
Track 9 accurately ripped (confidence 132) [99B2172D] (AR v2)
Track 10 accurately ripped (confidence 132) [5E51857D] (AR v2)
Track 11 accurately ripped (confidence 132) [B3D72C12] (AR v2)
Track 12 accurately ripped (confidence 133) [8597854E] (AR v2)
Track 13 accurately ripped (confidence 131) [FBA47DAB] (AR v2)
Track 14 accurately ripped (confidence 132) [21C4F409] (AR v2)
Track 15 accurately ripped (confidence 133) [E47C5255] (AR v2)
Track 16 accurately ripped (confidence 132) [0A6DF117] (AR v2)
Track 17 accurately ripped (confidence 132) [81FE2B06] (AR v2)
Track 18 accurately ripped (confidence 131) [6BA0B643] (AR v2)
Track 19 accurately ripped (confidence 132) [23207F7F] (AR v2)
Track 20 accurately ripped (confidence 132) [F3E51290] (AR v2)
Track 21 accurately ripped (confidence 132) [8802F943] (AR v2)
Track 22 accurately ripped (confidence 130) [C66C8BCE] (AR v2)
Track 23 accurately ripped (confidence 131) [CF70C2B1] (AR v2)
Track 24 accurately ripped (confidence 130) [E82BF148] (AR v2)
Track 25 accurately ripped (confidence 131) [B8AF2AC0] (AR v2)
Track 26 accurately ripped (confidence 131) [26CC1E6A] (AR v2)
Track 27 accurately ripped (confidence 131) [5790487C] (AR v2)
Track 28 accurately ripped (confidence 127) [5D4AE760] (AR v2)
Track 29 accurately ripped (confidence 127) [D75D2520] (AR v2)
Track 30 accurately ripped (confidence 130) [FC5740D6] (AR v2)
Track 31 accurately ripped (confidence 130) [0C094F42] (AR v2)
Track 32 accurately ripped (confidence 125) [F2445E8A] (AR v2)
Track 33 accurately ripped (confidence 128) [CE85541B] (AR v2)
Track 34 accurately ripped (confidence 125) [E6CB7F38] (AR v2)

All tracks accurately ripped

End of status report

—- CUETools DB Plugin V2.1.6

[CTDB TOCID: zyUSOBOdzi.3Qc5pdaPy6s3Yr7Y-] found
Submit result: already submitted
Track | CTDB Status
1 | (321/324) Accurately ripped
2 | (321/324) Accurately ripped
3 | (321/324) Accurately ripped
4 | (319/324) Accurately ripped
5 | (320/324) Accurately ripped
6 | (321/324) Accurately ripped
7 | (321/324) Accurately ripped
8 | (320/324) Accurately ripped
9 | (318/324) Accurately ripped
10 | (320/324) Accurately ripped
11 | (320/324) Accurately ripped
12 | (321/324) Accurately ripped
13 | (321/324) Accurately ripped
14 | (320/324) Accurately ripped
15 | (321/324) Accurately ripped
16 | (321/324) Accurately ripped
17 | (320/324) Accurately ripped
18 | (320/324) Accurately ripped
19 | (319/324) Accurately ripped
20 | (320/324) Accurately ripped
21 | (321/324) Accurately ripped
22 | (321/324) Accurately ripped
23 | (320/324) Accurately ripped
24 | (319/324) Accurately ripped
25 | (319/324) Accurately ripped
26 | (317/324) Accurately ripped
27 | (312/324) Accurately ripped
28 | (317/324) Accurately ripped
29 | (314/324) Accurately ripped
30 | (315/324) Accurately ripped
31 | (317/324) Accurately ripped
32 | (311/324) Accurately ripped
33 | (319/324) Accurately ripped
34 | (306/324) Accurately ripped

==== Log checksum 77CA7057A7A8747F1DEB25A5265E5CB2150B3065F19937769772DD58C4A3A043 ====

Exact Audio Copy V1.3 from 2. September 2016

EAC extraction logfile from 20. July 2018, 18:28

The Beatles / Live At The BBC (Disc 2) (CDP 7243 8 31796 2 6)

Used drive : PLEXTOR DVDR PX-891SA Adapter: 1 ID: 0

Read mode : Secure
Utilize accurate stream : Yes
Defeat audio cache : Yes
Make use of C2 pointers : No

Read offset correction : 6
Overread into Lead-In and Lead-Out : No
Fill up missing offset samples with silence : Yes
Delete leading and trailing silent blocks : No
Null samples used in CRC calculations : Yes
Used interface : Native Win32 interface for Win NT & 2000

Used output format : User Defined Encoder
Selected bitrate : 768 kBit/s
Quality : High
Add ID3 tag : No
Command line compressor : C:\Program Files (x86)\Exact Audio Copy\Flac\flac.exe
Additional command line options : -V -8 -T “Genre=%genre%” -T “Artist=%artist%” -T “Title=%title%” -T “Album=%albumtitle%” -T “Date=%year%” -T “Tracknumber=%tracknr%” -T “Comment=%comment%” %source%

TOC of the extracted CD

Track | Start | Length | Start sector | End sector
———————————————————
1 | 0:00.00 | 1:04.32 | 0 | 4831
2 | 1:04.32 | 2:24.20 | 4832 | 15651
3 | 3:28.52 | 0:21.50 | 15652 | 17276
4 | 3:50.27 | 2:09.13 | 17277 | 26964
5 | 5:59.40 | 0:20.12 | 26965 | 28476
6 | 6:19.52 | 2:15.70 | 28477 | 38671
7 | 8:35.47 | 2:04.03 | 38672 | 47974
8 | 10:39.50 | 2:18.15 | 47975 | 58339
9 | 12:57.65 | 3:14.50 | 58340 | 72939
10 | 16:12.40 | 2:20.60 | 72940 | 83499
11 | 18:33.25 | 0:10.25 | 83500 | 84274
12 | 18:43.50 | 2:36.07 | 84275 | 95981
13 | 21:19.57 | 2:59.15 | 95982 | 109421
14 | 24:18.72 | 1:49.00 | 109422 | 117596
15 | 26:07.72 | 1:51.45 | 117597 | 125966
16 | 27:59.42 | 2:46.58 | 125967 | 138474
17 | 30:46.25 | 1:53.45 | 138475 | 146994
18 | 32:39.70 | 2:12.65 | 146995 | 156959
19 | 34:52.60 | 2:32.45 | 156960 | 168404
20 | 37:25.30 | 2:20.70 | 168405 | 178974
21 | 39:46.25 | 2:00.67 | 178975 | 188041
22 | 41:47.17 | 2:56.28 | 188042 | 201269
23 | 44:43.45 | 2:42.15 | 201270 | 213434
24 | 47:25.60 | 2:37.37 | 213435 | 225246
25 | 50:03.22 | 0:27.48 | 225247 | 227319
26 | 50:30.70 | 1:57.02 | 227320 | 236096
27 | 52:27.72 | 2:08.70 | 236097 | 245766
28 | 54:36.67 | 0:26.63 | 245767 | 247779
29 | 55:03.55 | 1:55.37 | 247780 | 256441
30 | 56:59.17 | 1:36.38 | 256442 | 263679
31 | 58:35.55 | 0:35.40 | 263680 | 266344
32 | 59:11.20 | 2:02.45 | 266345 | 275539
33 | 61:13.65 | 2:36.17 | 275540 | 287256
34 | 63:50.07 | 2:11.35 | 287257 | 297116
35 | 66:01.42 | 2:29.63 | 297117 | 308354

Range status and errors

Selected range

Filename H:\dafnaplus\Beatles – Live At The BBC\Disc 2\The Beatles – Live At The BBC (Disc 2) (CDP 7243 8 31796 2 6).wav

Peak level 93.8 %
Extraction speed 4.7 X
Range quality 99.9 %
Test CRC DC76D1AB
Copy CRC DC76D1AB
Copy OK

No errors occurred

AccurateRip summary

Track 1 accurately ripped (confidence 200) [FEE77B8A] (AR v2)
Track 2 accurately ripped (confidence 200) [60B8A88E] (AR v2)
Track 3 accurately ripped (confidence 200) [3F98762E] (AR v2)
Track 4 accurately ripped (confidence 200) [D62AD5A9] (AR v2)
Track 5 accurately ripped (confidence 200) [A7CC7D2F] (AR v2)
Track 6 accurately ripped (confidence 200) [00450420] (AR v2)
Track 7 accurately ripped (confidence 200) [EEBF2762] (AR v2)
Track 8 accurately ripped (confidence 200) [400098D8] (AR v2)
Track 9 accurately ripped (confidence 200) [B8D7F0EE] (AR v2)
Track 10 accurately ripped (confidence 200) [08D75EA9] (AR v2)
Track 11 accurately ripped (confidence 200) [53D66A5F] (AR v2)
Track 12 accurately ripped (confidence 200) [78D63A96] (AR v2)
Track 13 accurately ripped (confidence 200) [178E527F] (AR v2)
Track 14 accurately ripped (confidence 200) [2C2DCD67] (AR v2)
Track 15 accurately ripped (confidence 200) [4350C329] (AR v2)
Track 16 accurately ripped (confidence 200) [7C14A043] (AR v2)
Track 17 accurately ripped (confidence 200) [64593508] (AR v2)
Track 18 accurately ripped (confidence 200) [0C2BA1A1] (AR v2)
Track 19 accurately ripped (confidence 200) [EDC08793] (AR v2)
Track 20 accurately ripped (confidence 200) [03828BD9] (AR v2)
Track 21 accurately ripped (confidence 200) [6D1FBA5B] (AR v2)
Track 22 accurately ripped (confidence 200) [24C5BDF9] (AR v2)
Track 23 accurately ripped (confidence 200) [094F6F1B] (AR v2)
Track 24 accurately ripped (confidence 200) [9C0895B8] (AR v2)
Track 25 accurately ripped (confidence 200) [0B99BC73] (AR v2)
Track 26 accurately ripped (confidence 200) [7DDB13CF] (AR v2)
Track 27 accurately ripped (confidence 200) [738F0789] (AR v2)
Track 28 accurately ripped (confidence 200) [CB2EC372] (AR v2)
Track 29 accurately ripped (confidence 200) [8A21AC97] (AR v2)
Track 30 accurately ripped (confidence 200) [EAEB72B4] (AR v2)
Track 31 accurately ripped (confidence 200) [B91BC509] (AR v2)
Track 32 accurately ripped (confidence 200) [4428FCA8] (AR v2)
Track 33 accurately ripped (confidence 200) [673FCB15] (AR v2)
Track 34 accurately ripped (confidence 200) [C7917EBC] (AR v2)
Track 35 accurately ripped (confidence 200) [789F0FF4] (AR v2)

All tracks accurately ripped

End of status report

—- CUETools DB Plugin V2.1.6

[CTDB TOCID: jndAFu207fQXBc_dgB1vKUFXxxA-] found
Submit result: already submitted
Track | CTDB Status
1 | (321/324) Accurately ripped
2 | (319/324) Accurately ripped
3 | (320/324) Accurately ripped
4 | (321/324) Accurately ripped
5 | (321/324) Accurately ripped
6 | (320/324) Accurately ripped
7 | (322/324) Accurately ripped
8 | (321/324) Accurately ripped
9 | (322/324) Accurately ripped
10 | (321/324) Accurately ripped
11 | (322/324) Accurately ripped
12 | (322/324) Accurately ripped
13 | (321/324) Accurately ripped
14 | (322/324) Accurately ripped
15 | (320/324) Accurately ripped
16 | (322/324) Accurately ripped
17 | (322/324) Accurately ripped
18 | (321/324) Accurately ripped
19 | (321/324) Accurately ripped
20 | (322/324) Accurately ripped
21 | (319/324) Accurately ripped
22 | (318/324) Accurately ripped
23 | (320/324) Accurately ripped
24 | (319/324) Accurately ripped
25 | (319/324) Accurately ripped
26 | (320/324) Accurately ripped
27 | (319/324) Accurately ripped
28 | (321/324) Accurately ripped
29 | (319/324) Accurately ripped
30 | (318/324) Accurately ripped
31 | (318/324) Accurately ripped
32 | (316/324) Accurately ripped
33 | (320/324) Accurately ripped
34 | (315/324) Accurately ripped
35 | (312/324) Accurately ripped

==== Log checksum 18056C9CCFF0AC4E7CD2C3F8B76877322E75EE5B863CF89B097E302AD758A6CA ====

REM GENRE Rock
REM DATE 1994
REM DISCID D70F4122
REM COMMENT “ExactAudioCopy v1.3”
PERFORMER “The Beatles”
TITLE “Live At The BBC (Disc 1) (CDP 7243 8 31796 2 6)”
REM COMPOSER “”
FILE “The Beatles – Live At The BBC (Disc 1) (CDP 7243 8 31796 2 6).flac” WAVE
TRACK 01 AUDIO
TITLE “Beatle Greetings (Speech)”
PERFORMER “The Beatles”
REM COMPOSER “”
INDEX 01 00:00:00
TRACK 02 AUDIO
TITLE “From Us To You”
PERFORMER “The Beatles”
REM COMPOSER “”
INDEX 01 00:13:52
TRACK 03 AUDIO
TITLE “Riding On A Bus (Speech)”
PERFORMER “The Beatles”
REM COMPOSER “”
INDEX 01 00:41:05
TRACK 04 AUDIO
TITLE “I Got A Woman”
PERFORMER “The Beatles”
REM COMPOSER “”
INDEX 01 01:34:72
TRACK 05 AUDIO
TITLE “Too Much Monkey Business”
PERFORMER “The Beatles”
REM COMPOSER “”
INDEX 01 04:23:12
TRACK 06 AUDIO
TITLE “Keep Your Hands Off My Baby”
PERFORMER “The Beatles”
REM COMPOSER “”
INDEX 01 06:28:72
TRACK 07 AUDIO
TITLE “I’ll Be On My Way”
PERFORMER “The Beatles”
REM COMPOSER “”
INDEX 01 08:58:72
TRACK 08 AUDIO
TITLE “Young Blood”
PERFORMER “The Beatles”
REM COMPOSER “”
INDEX 01 10:56:57
TRACK 09 AUDIO
TITLE “A Shot Of Rhythm And Blues”
PERFORMER “The Beatles”
REM COMPOSER “”
INDEX 01 12:53:42
TRACK 10 AUDIO
TITLE “Sure To Fall (In Love With You)”
PERFORMER “The Beatles”
REM COMPOSER “”
INDEX 01 15:08:37
TRACK 11 AUDIO
TITLE “Some Other Guy”
PERFORMER “The Beatles”
REM COMPOSER “”
INDEX 01 17:16:02
TRACK 12 AUDIO
TITLE “Thank You Girl”
PERFORMER “The Beatles”
REM COMPOSER “”
INDEX 01 19:16:55
TRACK 13 AUDIO
TITLE “Sha La La La La! (Speech)”
PERFORMER “The Beatles”
REM COMPOSER “”
INDEX 01 21:18:17
TRACK 14 AUDIO
TITLE “Baby It’s You”
PERFORMER “The Beatles”
REM COMPOSER “”
INDEX 01 21:45:65
TRACK 15 AUDIO
TITLE “That’s All Right (Mama)”
PERFORMER “The Beatles”
REM COMPOSER “”
INDEX 01 24:29:55
TRACK 16 AUDIO
TITLE “Carol”
PERFORMER “The Beatles”
REM COMPOSER “”
INDEX 01 27:23:50
TRACK 17 AUDIO
TITLE “Soldier Of Love”
PERFORMER “The Beatles”
REM COMPOSER “”
INDEX 01 29:58:27
TRACK 18 AUDIO
TITLE “A Little Rhyme (Speech)”
PERFORMER “The Beatles”
REM COMPOSER “”
INDEX 01 31:58:10
TRACK 19 AUDIO
TITLE “Clarabella”
PERFORMER “The Beatles”
REM COMPOSER “”
INDEX 01 32:24:02
TRACK 20 AUDIO
TITLE “I’m Gonna Sit Right Down And Cry (Over You)”
PERFORMER “The Beatles”
REM COMPOSER “”
INDEX 01 35:03:22
TRACK 21 AUDIO
TITLE “Crying, Waiting, Hoping”
PERFORMER “The Beatles”
REM COMPOSER “”
INDEX 01 37:04:55
TRACK 22 AUDIO
TITLE “Dear Wack! (Speech)”
PERFORMER “The Beatles”
REM COMPOSER “”
INDEX 01 39:14:12
TRACK 23 AUDIO
TITLE “You Really Got A Hold On Me”
PERFORMER “The Beatles”
REM COMPOSER “”
INDEX 01 39:56:30
TRACK 24 AUDIO
TITLE “To Know Her Is To Love Her”
PERFORMER “The Beatles”
REM COMPOSER “”
INDEX 01 42:33:67
TRACK 25 AUDIO
TITLE “A Taste Of Honey”
PERFORMER “The Beatles”
REM COMPOSER “”
INDEX 01 45:23:05
TRACK 26 AUDIO
TITLE “Long Tall Sally”
PERFORMER “The Beatles”
REM COMPOSER “”
INDEX 01 47:20:42
TRACK 27 AUDIO
TITLE “I Saw Her Standing There”
PERFORMER “The Beatles”
REM COMPOSER “”
INDEX 01 49:13:37
TRACK 28 AUDIO
TITLE “The Honeymoon Song”
PERFORMER “The Beatles”
REM COMPOSER “”
INDEX 01 51:45:10
TRACK 29 AUDIO
TITLE “Johnny B Goode”
PERFORMER “The Beatles”
REM COMPOSER “”
INDEX 01 53:24:40
TRACK 30 AUDIO
TITLE “Memphis, Tennessee”
PERFORMER “The Beatles”
REM COMPOSER “”
INDEX 01 56:15:62
TRACK 31 AUDIO
TITLE “Lucille”
PERFORMER “The Beatles”
REM COMPOSER “”
INDEX 01 58:28:50
TRACK 32 AUDIO
TITLE “Can’t Buy Me Love”
PERFORMER “The Beatles”
REM COMPOSER “”
INDEX 01 60:17:60
TRACK 33 AUDIO
TITLE “From Fluff To You (Speech)”
PERFORMER “The Beatles”
REM COMPOSER “”
INDEX 01 62:24:17
TRACK 34 AUDIO
TITLE “Till There Was You”
PERFORMER “The Beatles”
REM COMPOSER “”
INDEX 01 62:52:32

REM GENRE Rock
REM DATE 1994
REM DISCID F6100F23
REM COMMENT “ExactAudioCopy v1.3”
PERFORMER “The Beatles”
TITLE “Live At The BBC (Disc 2) (CDP 7243 8 31796 2 6)”
REM COMPOSER “”
FILE “The Beatles – Live At The BBC (Disc 2) (CDP 7243 8 31796 2 6).flac” WAVE
TRACK 01 AUDIO
TITLE “Crinsk Dee Night (Speech)”
PERFORMER “The Beatles”
REM COMPOSER “”
INDEX 01 00:00:00
TRACK 02 AUDIO
TITLE “A Hard Day’s Night”
PERFORMER “The Beatles”
REM COMPOSER “”
INDEX 01 01:04:32
TRACK 03 AUDIO
TITLE “Have A Banana! (Speech)”
PERFORMER “The Beatles”
REM COMPOSER “”
INDEX 01 03:28:52
TRACK 04 AUDIO
TITLE “I Wanna Be Your Man”
PERFORMER “The Beatles”
REM COMPOSER “”
INDEX 01 03:50:27
TRACK 05 AUDIO
TITLE “Just A Rumour (Speech)”
PERFORMER “The Beatles”
REM COMPOSER “”
INDEX 01 05:59:40
TRACK 06 AUDIO
TITLE “Roll Over Beethoven”
PERFORMER “The Beatles”
REM COMPOSER “”
INDEX 01 06:19:52
TRACK 07 AUDIO
TITLE “All My Loving”
PERFORMER “The Beatles”
REM COMPOSER “”
INDEX 01 08:35:47
TRACK 08 AUDIO
TITLE “Things We Said Today”
PERFORMER “The Beatles”
REM COMPOSER “”
INDEX 01 10:39:50
TRACK 09 AUDIO
TITLE “She’s A Woman”
PERFORMER “The Beatles”
REM COMPOSER “”
INDEX 01 12:57:65
TRACK 10 AUDIO
TITLE “Sweet Little Sixteen”
PERFORMER “The Beatles”
REM COMPOSER “”
INDEX 01 16:12:40
TRACK 11 AUDIO
TITLE “1822!”
PERFORMER “The Beatles”
REM COMPOSER “”
INDEX 01 18:33:25
TRACK 12 AUDIO
TITLE “Lonesome Tears In My Eyes”
PERFORMER “The Beatles”
REM COMPOSER “”
INDEX 01 18:43:50
TRACK 13 AUDIO
TITLE “Nothin’ Shakin'”
PERFORMER “The Beatles”
REM COMPOSER “”
INDEX 01 21:19:57
TRACK 14 AUDIO
TITLE “The Hippy Hippy Shake”
PERFORMER “The Beatles”
REM COMPOSER “”
INDEX 01 24:18:72
TRACK 15 AUDIO
TITLE “Glad All Over”
PERFORMER “The Beatles”
REM COMPOSER “”
INDEX 01 26:07:72
TRACK 16 AUDIO
TITLE “I Just Don’t Understand”
PERFORMER “The Beatles”
REM COMPOSER “”
INDEX 01 27:59:42
TRACK 17 AUDIO
TITLE “Top So How Come (No One Loves Me)”
PERFORMER “The Beatles”
REM COMPOSER “”
INDEX 01 30:46:25
TRACK 18 AUDIO
TITLE “I Feel Fine”
PERFORMER “The Beatles”
REM COMPOSER “”
INDEX 01 32:39:70
TRACK 19 AUDIO
TITLE “I’m A Loser”
PERFORMER “The Beatles”
REM COMPOSER “”
INDEX 01 34:52:60
TRACK 20 AUDIO
TITLE “Everybody’s Trying to Be My Baby”
PERFORMER “The Beatles”
REM COMPOSER “”
INDEX 01 37:25:30
TRACK 21 AUDIO
TITLE “Rock And Roll Music”
PERFORMER “The Beatles”
REM COMPOSER “”
INDEX 01 39:46:25
TRACK 22 AUDIO
TITLE “Ticket To Ride”
PERFORMER “The Beatles”
REM COMPOSER “”
INDEX 01 41:47:17
TRACK 23 AUDIO
TITLE “Dizzy Miss Lizzy”
PERFORMER “The Beatles”
REM COMPOSER “”
INDEX 01 44:43:45
TRACK 24 AUDIO
TITLE “Medley: Kansas City/Hey! Hey! Hey! Hey!”
PERFORMER “The Beatles”
REM COMPOSER “”
INDEX 01 47:25:60
TRACK 25 AUDIO
TITLE “Set Fire To That Lot!”
PERFORMER “The Beatles”
REM COMPOSER “”
INDEX 01 50:03:22
TRACK 26 AUDIO
TITLE “Matchbox”
PERFORMER “The Beatles”
REM COMPOSER “”
INDEX 01 50:30:70
TRACK 27 AUDIO
TITLE “I Forgot To Remember To Forget”
PERFORMER “The Beatles”
REM COMPOSER “”
INDEX 01 52:27:72
TRACK 28 AUDIO
TITLE “Love These Goon Shows!”
PERFORMER “The Beatles”
REM COMPOSER “”
INDEX 01 54:36:67
TRACK 29 AUDIO
TITLE “I Got To Find My Baby”
PERFORMER “The Beatles”
REM COMPOSER “”
INDEX 01 55:03:55
TRACK 30 AUDIO
TITLE “Ooh! My Soul”
PERFORMER “The Beatles”
REM COMPOSER “”
INDEX 01 56:59:17
TRACK 31 AUDIO
TITLE “Ooh! My Arms”
PERFORMER “The Beatles”
REM COMPOSER “”
INDEX 01 58:35:55
TRACK 32 AUDIO
TITLE “Don’t Ever Change”
PERFORMER “The Beatles”
REM COMPOSER “”
INDEX 01 59:11:20
TRACK 33 AUDIO
TITLE “Slow Down”
PERFORMER “The Beatles”
REM COMPOSER “”
INDEX 01 61:13:65
TRACK 34 AUDIO
TITLE “Honey Don’t”
PERFORMER “The Beatles”
REM COMPOSER “”
INDEX 01 63:50:07
TRACK 35 AUDIO
TITLE “Love Me Do”
PERFORMER “The Beatles”
REM COMPOSER “”
INDEX 01 66:01:42


Leave a Reply

Your email address will not be published. Required fields are marked *

This site uses Akismet to reduce spam. Learn how your comment data is processed.