The Beatles – Live At The BBC (Remastered)




Artist: The Beatles
Year: 1994
Genre: Rock
Notes: Discogs
Add. Notes: Remastered
Cover incl.: Yes
Encoder: FLAC
Bitrate: ~700 kBit/s (44.1 kHz/16 Bit/s)
Log & Cue incl.: Yes
Size: 517,3 MB
Password: “slam” (without ” “)


All Downloads/Hosters are compatible

Download 1
KatFile.com
Rapidgator.net
NitroFlare.com
Turbobit.net
Download 2
KatFile.com
Rapidgator.net
NitroFlare.com
Turbobit.net
Download 3
KatFile.com
Rapidgator.net
NitroFlare.com
Turbobit.net

Tracklist:

1-1 - Beatle Greetings (Speech) - 0:14
1-2 - From Us To You - 0:27
1-3 - Riding On A Bus (Speech) - 0:54
1-4 - I Got A Woman - 2:48
1-5 - Too Much Monkey Business - 2:06
1-6 - Keep Your Hands Off My Baby - 2:30
1-7 - I'll Be On My Way - 1:58
1-8 - Young Blood - 1:57
1-9 - A Shot Of Rhythm And Blues - 2:15
1-10 - Sure To Fall (In Love With You) - 2:08
1-11 - Some Other Guy - 2:01
1-12 - Thank You Girl - 2:02
1-13 - Sha La La La La! (Speech) - 0:28
1-14 - Baby It's You - 2:44
1-15 - That's All Right (Mama) - 2:54
1-16 - Carol - 2:35
1-17 - Soldier Of Love - 2:00
1-18 - A Little Rhyme (Speech) - 0:26
1-19 - Clarabella - 2:39
1-20 - I'm Gonna Sit Right Down And Cry (Over You) - 
2:01
1-21 - Crying, Waiting, Hoping - 2:09
1-22 - Dear Wack! (Speech) - 0:42
1-23 - You Really Got A Hold On Me - 2:38
1-24 - To Know Her Is To Love Her - 2:49
1-25 - Taste Of Honey - 1:58
1-26 - Long Tall Sally - 1:53
1-27 - I Saw Her Standing There - 2:32
1-28 - The Honeymoon Song - 1:39
1-29 - Johnny B Goode - 2:51
1-30 - Memphis, Tennessee - 2:13
1-31 - Lucille - 1:49
1-32 - Can't Buy Me Love - 2:06
1-33 - From Fluff To You (Speech) - 0:28
1-34 - Till There Was You - 2:13

2-1 - Crinsk Dee Night (Speech) - 1:04
2-2 - A Hard Day's Night - 2:24
2-3 - Have A Banana! (Speech) - 0:22
2-4 - I Wanna Be Your Man - 2:09
2-5 - Just A Rumour (Speech) - 0:20
2-6 - Roll Over Beethoven - 2:16
2-7 - All My Loving - 2:04
2-8 - Things We Said Today - 2:18
2-9 - She's A Woman - 3:15
2-10 - Sweet Little Sixteen - 2:21
2-11 - 1822! - 0:10
2-12 - Lonesome Tears In My Eyes - 2:36
2-13 - Nothin' Shakin' - 2:59
2-14 - The Hippy Hippy Shake - 1:49
2-15 - Glad All Over - 1:52
2-16 - I Just Don't Understand - 2:47
2-17 - So How Come - 1:54
2-18 - I Feel Fine - 2:13
2-19 - I'm A Loser - 2:33
2-20 - Everybody's Trying To Be My Baby - 2:21
2-21 - Rock And Roll Music - 2:01
2-22 - Ticket To Ride - 2:56
2-23 - Dizzy Miss Lizzy - 2:42
2-24 - Medley: Kansas City / Hey! Hey! Hey! Hey! - 2:38
2-25 - Set Fire To That Lot! - 0:28
2-26 - Matchbox - 1:57
2-27 - I Forgot To Remember To Forget - 2:09
2-28 - Love These Goon Shows! - 0:27
2-29 - I Got To Find My Baby - 1:56
2-30 - Ooh! My Soul - 1:37
2-31 - Ooh! My Arms - 0:36
2-32 - Don't Ever Change - 2:03
2-33 - Slow Down - 2:36
2-34 - Honey Don't - 2:12
2-35 - Love Me Do - 2:30

EAC-Log, CUE-Sheed & NFO:

Click to open spoiler
Exact Audio Copy V1.0 beta 3 from 29. August 2011

EAC extraction logfile from 23. August 2013, 18:17

The Beatles / Live At The BBC (Disc 1)

Used drive : PLEXTOR DVDR PX-891SA Adapter: 1 ID: 0

Read mode : Secure
Utilize accurate stream : Yes
Defeat audio cache : Yes
Make use of C2 pointers : No

Read offset correction : 6
Overread into Lead-In and Lead-Out : No
Fill up missing offset samples with silence : Yes
Delete leading and trailing silent blocks : No
Null samples used in CRC calculations : Yes
Used interface : Native Win32 interface for Win NT & 2000

Used output format : User Defined Encoder
Selected bitrate : 1024 kBit/s
Quality : High
Add ID3 tag : No
Command line compressor : C:\Program Files\Exact Audio Copy\Flac\flac.exe
Additional command line options : -V -8 -T “Genre=%genre%” -T “Artist=%artist%” -T “Title=%title%” -T “Album=%albumtitle%” -T “Date=%year%” -T “Tracknumber=%tracknr%” -T “Comment=%comment%” %source%

TOC of the extracted CD

Track | Start | Length | Start sector | End sector
———————————————————
1 | 0:00.33 | 0:13.60 | 33 | 1067
2 | 0:14.18 | 0:27.27 | 1068 | 3119
3 | 0:41.45 | 0:53.68 | 3120 | 7162
4 | 1:35.38 | 2:48.15 | 7163 | 19777
5 | 4:23.53 | 2:05.60 | 19778 | 29212
6 | 6:29.38 | 2:30.00 | 29213 | 40462
7 | 8:59.38 | 1:57.60 | 40463 | 49297
8 | 10:57.23 | 1:56.60 | 49298 | 58057
9 | 12:54.08 | 2:14.70 | 58058 | 68177
10 | 15:09.03 | 2:07.40 | 68178 | 77742
11 | 17:16.43 | 2:00.52 | 77743 | 86794
12 | 19:17.20 | 2:01.38 | 86795 | 95907
13 | 21:18.58 | 0:27.47 | 95908 | 97979
14 | 21:46.30 | 2:43.65 | 97980 | 110269
15 | 24:30.20 | 2:53.70 | 110270 | 123314
16 | 27:24.15 | 2:34.53 | 123315 | 134917
17 | 29:58.68 | 1:59.57 | 134918 | 143899
18 | 31:58.50 | 0:25.68 | 143900 | 145842
19 | 32:24.43 | 2:39.20 | 145843 | 157787
20 | 35:03.63 | 2:01.32 | 157788 | 166894
21 | 37:05.20 | 2:09.33 | 166895 | 176602
22 | 39:14.53 | 0:42.17 | 176603 | 179769
23 | 39:56.70 | 2:37.38 | 179770 | 191582
24 | 42:34.33 | 2:49.12 | 191583 | 204269
25 | 45:23.45 | 1:57.38 | 204270 | 213082
26 | 47:21.08 | 1:52.70 | 213083 | 221552
27 | 49:14.03 | 2:31.47 | 221553 | 232924
28 | 51:45.50 | 1:39.30 | 232925 | 240379
29 | 53:25.05 | 2:51.23 | 240380 | 253227
30 | 56:16.28 | 2:12.62 | 253228 | 263189
31 | 58:29.15 | 1:49.10 | 263190 | 271374
32 | 60:18.25 | 2:06.33 | 271375 | 280857
33 | 62:24.58 | 0:28.15 | 280858 | 282972
34 | 62:52.73 | 2:13.12 | 282973 | 292959

Range status and errors

Selected range

Filename I:\dafnaplus\Beatles – Live At The BBC\Disc 1\The Beatles – Live At The BBC (Disc 1).wav

Peak level 98.1 %
Extraction speed 9.0 X
Range quality 100.0 %
Test CRC 7CB64A17
Copy CRC 7CB64A17
Copy OK

No errors occurred

AccurateRip summary

Track 1 accurately ripped (confidence 83) [612B95AA] (AR v2)
Track 2 accurately ripped (confidence 84) [24770100] (AR v2)
Track 3 accurately ripped (confidence 83) [CDA9486F] (AR v2)
Track 4 accurately ripped (confidence 84) [9332C152] (AR v2)
Track 5 accurately ripped (confidence 84) [AB6D87A5] (AR v2)
Track 6 accurately ripped (confidence 84) [7D29B2D4] (AR v2)
Track 7 accurately ripped (confidence 84) [D798D8EB] (AR v2)
Track 8 accurately ripped (confidence 85) [73B7D044] (AR v2)
Track 9 accurately ripped (confidence 84) [7FF3F042] (AR v2)
Track 10 accurately ripped (confidence 85) [F181365A] (AR v2)
Track 11 accurately ripped (confidence 84) [4945D6FB] (AR v2)
Track 12 accurately ripped (confidence 85) [BB6AC904] (AR v2)
Track 13 accurately ripped (confidence 83) [97CAE774] (AR v2)
Track 14 accurately ripped (confidence 83) [D109A3A1] (AR v2)
Track 15 accurately ripped (confidence 84) [38E1A427] (AR v2)
Track 16 accurately ripped (confidence 86) [F420DC39] (AR v2)
Track 17 accurately ripped (confidence 85) [207ED067] (AR v2)
Track 18 accurately ripped (confidence 85) [B448FAF9] (AR v2)
Track 19 accurately ripped (confidence 84) [53DEB1B1] (AR v2)
Track 20 accurately ripped (confidence 83) [2A2D45DE] (AR v2)
Track 21 accurately ripped (confidence 83) [5B90C335] (AR v2)
Track 22 accurately ripped (confidence 83) [BF2C893D] (AR v2)
Track 23 accurately ripped (confidence 84) [D9F6CEFE] (AR v2)
Track 24 accurately ripped (confidence 84) [61A5697F] (AR v2)
Track 25 accurately ripped (confidence 83) [1D698A82] (AR v2)
Track 26 accurately ripped (confidence 83) [CBD0C140] (AR v2)
Track 27 accurately ripped (confidence 85) [EB26D679] (AR v2)
Track 28 accurately ripped (confidence 84) [4347CF9F] (AR v2)
Track 29 accurately ripped (confidence 84) [369685AA] (AR v2)
Track 30 accurately ripped (confidence 83) [CA3D13FB] (AR v2)
Track 31 accurately ripped (confidence 84) [6475A7E8] (AR v2)
Track 32 accurately ripped (confidence 83) [07687387] (AR v2)
Track 33 accurately ripped (confidence 82) [49B3CE4F] (AR v2)
Track 34 accurately ripped (confidence 83) [31594A30] (AR v2)

All tracks accurately ripped

End of status report

==== Log checksum CEAF09741DBB17E621D42A9D0A3B93E3632DAF156B32E4DECFCB9E4972815038 ====

Exact Audio Copy V1.0 beta 3 from 29. August 2011

EAC extraction logfile from 23. August 2013, 18:42

The Beatles / Live At The BBC (Disc 2)

Used drive : PLEXTOR DVDR PX-891SA Adapter: 1 ID: 0

Read mode : Secure
Utilize accurate stream : Yes
Defeat audio cache : Yes
Make use of C2 pointers : No

Read offset correction : 6
Overread into Lead-In and Lead-Out : No
Fill up missing offset samples with silence : Yes
Delete leading and trailing silent blocks : No
Null samples used in CRC calculations : Yes
Used interface : Native Win32 interface for Win NT & 2000

Used output format : User Defined Encoder
Selected bitrate : 1024 kBit/s
Quality : High
Add ID3 tag : No
Command line compressor : C:\Program Files\Exact Audio Copy\Flac\flac.exe
Additional command line options : -V -8 -T “Genre=%genre%” -T “Artist=%artist%” -T “Title=%title%” -T “Album=%albumtitle%” -T “Date=%year%” -T “Tracknumber=%tracknr%” -T “Comment=%comment%” %source%

TOC of the extracted CD

Track | Start | Length | Start sector | End sector
———————————————————
1 | 0:00.33 | 1:04.40 | 33 | 4872
2 | 1:04.73 | 2:24.20 | 4873 | 15692
3 | 3:29.18 | 0:21.52 | 15693 | 17319
4 | 3:50.70 | 2:09.10 | 17320 | 27004
5 | 6:00.05 | 0:20.13 | 27005 | 28517
6 | 6:20.18 | 2:15.72 | 28518 | 38714
7 | 8:36.15 | 2:04.03 | 38715 | 48017
8 | 10:40.18 | 2:18.12 | 48018 | 58379
9 | 12:58.30 | 3:14.50 | 58380 | 72979
10 | 16:13.05 | 2:20.60 | 72980 | 83539
11 | 18:33.65 | 0:10.25 | 83540 | 84314
12 | 18:44.15 | 2:36.08 | 84315 | 96022
13 | 21:20.23 | 2:59.15 | 96023 | 109462
14 | 24:19.38 | 1:49.00 | 109463 | 117637
15 | 26:08.38 | 1:51.45 | 117638 | 126007
16 | 28:00.08 | 2:46.57 | 126008 | 138514
17 | 30:46.65 | 1:53.45 | 138515 | 147034
18 | 32:40.35 | 2:12.68 | 147035 | 157002
19 | 34:53.28 | 2:32.42 | 157003 | 168444
20 | 37:25.70 | 2:20.70 | 168445 | 179014
21 | 39:46.65 | 2:00.68 | 179015 | 188082
22 | 41:47.58 | 2:56.27 | 188083 | 201309
23 | 44:44.10 | 2:42.18 | 201310 | 213477
24 | 47:26.28 | 2:37.35 | 213478 | 225287
25 | 50:03.63 | 0:27.47 | 225288 | 227359
26 | 50:31.35 | 1:57.03 | 227360 | 236137
27 | 52:28.38 | 2:08.70 | 236138 | 245807
28 | 54:37.33 | 0:26.62 | 245808 | 247819
29 | 55:04.20 | 1:55.38 | 247820 | 256482
30 | 56:59.58 | 1:36.40 | 256483 | 263722
31 | 58:36.23 | 0:35.37 | 263723 | 266384
32 | 59:11.60 | 2:02.45 | 266385 | 275579
33 | 61:14.30 | 2:36.18 | 275580 | 287297
34 | 63:50.48 | 2:11.35 | 287298 | 297157
35 | 66:02.08 | 2:29.42 | 297158 | 308374

Range status and errors

Selected range

Filename I:\dafnaplus\Beatles – Live At The BBC\Disc 2\The Beatles – Live At The BBC (Disc 2).wav

Peak level 93.8 %
Extraction speed 7.8 X
Range quality 99.9 %
Test CRC C30503B6
Copy CRC C30503B6
Copy OK

No errors occurred

AccurateRip summary

Track 1 accurately ripped (confidence 90) [E68D39D4] (AR v2)
Track 2 accurately ripped (confidence 90) [D682EBD2] (AR v2)
Track 3 accurately ripped (confidence 91) [56887B95] (AR v2)
Track 4 accurately ripped (confidence 89) [D699F5D1] (AR v2)
Track 5 accurately ripped (confidence 90) [5CBF60FF] (AR v2)
Track 6 accurately ripped (confidence 89) [8F21476C] (AR v2)
Track 7 accurately ripped (confidence 91) [F6447102] (AR v2)
Track 8 accurately ripped (confidence 91) [5D533734] (AR v2)
Track 9 accurately ripped (confidence 90) [F3078FD9] (AR v2)
Track 10 accurately ripped (confidence 91) [A216A11E] (AR v2)
Track 11 accurately ripped (confidence 91) [C63A346B] (AR v2)
Track 12 accurately ripped (confidence 91) [7C856330] (AR v2)
Track 13 accurately ripped (confidence 91) [60197926] (AR v2)
Track 14 accurately ripped (confidence 90) [EE32FFB3] (AR v2)
Track 15 accurately ripped (confidence 91) [EFB5DB6A] (AR v2)
Track 16 accurately ripped (confidence 90) [1DC4DCB8] (AR v2)
Track 17 accurately ripped (confidence 89) [A15EB512] (AR v2)
Track 18 accurately ripped (confidence 91) [5B774FCA] (AR v2)
Track 19 accurately ripped (confidence 88) [39CAD98A] (AR v2)
Track 20 accurately ripped (confidence 90) [F9927E05] (AR v2)
Track 21 accurately ripped (confidence 92) [6EA2B5BA] (AR v2)
Track 22 accurately ripped (confidence 92) [F74B90B9] (AR v2)
Track 23 accurately ripped (confidence 92) [67B7C65C] (AR v2)
Track 24 accurately ripped (confidence 93) [864C80EF] (AR v2)
Track 25 accurately ripped (confidence 92) [71862327] (AR v2)
Track 26 accurately ripped (confidence 92) [A91D3EC0] (AR v2)
Track 27 accurately ripped (confidence 91) [B75D4DA4] (AR v2)
Track 28 accurately ripped (confidence 93) [A4339C11] (AR v2)
Track 29 accurately ripped (confidence 92) [DC1DF93D] (AR v2)
Track 30 accurately ripped (confidence 93) [DE136003] (AR v2)
Track 31 accurately ripped (confidence 93) [82F39323] (AR v2)
Track 32 accurately ripped (confidence 91) [75042C9C] (AR v2)
Track 33 accurately ripped (confidence 89) [9366F5E3] (AR v2)
Track 34 accurately ripped (confidence 89) [3118EDF5] (AR v2)
Track 35 accurately ripped (confidence 92) [82699053] (AR v2)

All tracks accurately ripped

End of status report

==== Log checksum A7FDE0334DC7F88CDABC743D4CD7A0A3201888714864CABC17288EC7D191BF58 ====

REM GENRE Rock
REM DATE 1994
REM DISCID E10F4222
REM COMMENT “ExactAudioCopy v1.0b3”
CATALOG 0724383179626
PERFORMER “The Beatles”
TITLE “Live At The BBC (Disc 1)”
FILE “The Beatles – Live At The BBC (Disc 1).flac” WAVE
TRACK 01 AUDIO
TITLE “Beatle Greetings”
PERFORMER “The Beatles”
INDEX 00 00:00:00
INDEX 01 00:00:33
TRACK 02 AUDIO
TITLE “From Us To You”
PERFORMER “The Beatles”
INDEX 00 00:14:15
INDEX 01 00:14:18
TRACK 03 AUDIO
TITLE “Riding On A Bus”
PERFORMER “The Beatles”
INDEX 00 00:41:43
INDEX 01 00:41:45
TRACK 04 AUDIO
TITLE “I Got A Woman”
PERFORMER “The Beatles”
INDEX 00 01:35:35
INDEX 01 01:35:38
TRACK 05 AUDIO
TITLE “Too Much Monkey Business”
PERFORMER “The Beatles”
INDEX 00 04:23:50
INDEX 01 04:23:53
TRACK 06 AUDIO
TITLE “Keep Your Hands Off My Baby”
PERFORMER “The Beatles”
INDEX 00 06:29:35
INDEX 01 06:29:38
TRACK 07 AUDIO
TITLE “I’ll Be On My Way”
PERFORMER “The Beatles”
INDEX 00 08:59:35
INDEX 01 08:59:38
TRACK 08 AUDIO
TITLE “Young Blood”
PERFORMER “The Beatles”
INDEX 00 10:57:20
INDEX 01 10:57:23
TRACK 09 AUDIO
TITLE “A Shot Of Rhythm And Blues”
PERFORMER “The Beatles”
INDEX 00 12:54:05
INDEX 01 12:54:08
TRACK 10 AUDIO
TITLE “Sure To Fall (In Love With You)”
PERFORMER “The Beatles”
INDEX 00 15:09:00
INDEX 01 15:09:03
TRACK 11 AUDIO
TITLE “Some Other Guy”
PERFORMER “The Beatles”
INDEX 00 17:16:40
INDEX 01 17:16:43
TRACK 12 AUDIO
TITLE “Thank You Girl”
PERFORMER “The Beatles”
INDEX 00 19:17:18
INDEX 01 19:17:20
TRACK 13 AUDIO
TITLE “Sha La La La La!”
PERFORMER “The Beatles”
INDEX 00 21:18:55
INDEX 01 21:18:58
TRACK 14 AUDIO
TITLE “Baby It’s You”
PERFORMER “The Beatles”
INDEX 00 21:46:28
INDEX 01 21:46:30
TRACK 15 AUDIO
TITLE “That’s All Right (Mama)”
PERFORMER “The Beatles”
INDEX 00 24:30:18
INDEX 01 24:30:20
TRACK 16 AUDIO
TITLE “Carol”
PERFORMER “The Beatles”
INDEX 00 27:24:13
INDEX 01 27:24:15
TRACK 17 AUDIO
TITLE “Soldier Of Love”
PERFORMER “The Beatles”
INDEX 00 29:58:65
INDEX 01 29:58:68
TRACK 18 AUDIO
TITLE “A Little Rhyme”
PERFORMER “The Beatles”
INDEX 00 31:58:48
INDEX 01 31:58:50
TRACK 19 AUDIO
TITLE “Clarabella”
PERFORMER “The Beatles”
INDEX 00 32:24:40
INDEX 01 32:24:43
TRACK 20 AUDIO
TITLE “I’m Gonna Sit Right Down And Cry (Over You)”
PERFORMER “The Beatles”
INDEX 00 35:03:60
INDEX 01 35:03:63
TRACK 21 AUDIO
TITLE “Crying, Waiting, Hoping”
PERFORMER “The Beatles”
INDEX 00 37:05:18
INDEX 01 37:05:20
TRACK 22 AUDIO
TITLE “Dear Wack!”
PERFORMER “The Beatles”
INDEX 00 39:14:50
INDEX 01 39:14:53
TRACK 23 AUDIO
TITLE “You Really Got A Hold On Me”
PERFORMER “The Beatles”
INDEX 00 39:56:68
INDEX 01 39:56:70
TRACK 24 AUDIO
TITLE “To Know Her Is To Love Her”
PERFORMER “The Beatles”
INDEX 00 42:34:30
INDEX 01 42:34:33
TRACK 25 AUDIO
TITLE “A Taste Of Honey”
PERFORMER “The Beatles”
INDEX 00 45:23:43
INDEX 01 45:23:45
TRACK 26 AUDIO
TITLE “Long Tall Sally”
PERFORMER “The Beatles”
INDEX 00 47:21:05
INDEX 01 47:21:08
TRACK 27 AUDIO
TITLE “I Saw Her Standing There”
PERFORMER “The Beatles”
INDEX 00 49:14:00
INDEX 01 49:14:03
TRACK 28 AUDIO
TITLE “The Honeymoon Song”
PERFORMER “The Beatles”
INDEX 00 51:45:48
INDEX 01 51:45:50
TRACK 29 AUDIO
TITLE “Johnny B Goode”
PERFORMER “The Beatles”
INDEX 00 53:25:03
INDEX 01 53:25:05
TRACK 30 AUDIO
TITLE “Memphis, Tennessee”
PERFORMER “The Beatles”
INDEX 00 56:16:25
INDEX 01 56:16:28
TRACK 31 AUDIO
TITLE “Lucille”
PERFORMER “The Beatles”
INDEX 00 58:29:13
INDEX 01 58:29:15
TRACK 32 AUDIO
TITLE “Can’t Buy Me Love”
PERFORMER “The Beatles”
INDEX 00 60:18:23
INDEX 01 60:18:25
TRACK 33 AUDIO
TITLE “From Fluff To You”
PERFORMER “The Beatles”
INDEX 00 62:24:55
INDEX 01 62:24:58
TRACK 34 AUDIO
TITLE “Till There Was You”
PERFORMER “The Beatles”
INDEX 00 62:52:70
INDEX 01 62:52:73

REM GENRE Rock
REM DATE 1994
REM DISCID F2100F23
REM COMMENT “ExactAudioCopy v1.0b3”
CATALOG 0724383179626
PERFORMER “The Beatles”
TITLE “Live At The BBC (Disc 2)”
FILE “The Beatles – Live At The BBC (Disc 2).flac” WAVE
TRACK 01 AUDIO
TITLE “Crinsk Dee Night (Speech)”
PERFORMER “The Beatles”
INDEX 00 00:00:00
INDEX 01 00:00:33
TRACK 02 AUDIO
TITLE “A Hard Day’s Night”
PERFORMER “The Beatles”
INDEX 00 01:04:70
INDEX 01 01:04:73
TRACK 03 AUDIO
TITLE “Have A Banana! (Speech)”
PERFORMER “The Beatles”
INDEX 00 03:29:15
INDEX 01 03:29:18
TRACK 04 AUDIO
TITLE “I Wanna Be Your Man”
PERFORMER “The Beatles”
INDEX 00 03:50:68
INDEX 01 03:50:70
TRACK 05 AUDIO
TITLE “Just A Rumour (Speech)”
PERFORMER “The Beatles”
INDEX 00 06:00:03
INDEX 01 06:00:05
TRACK 06 AUDIO
TITLE “Roll Over Beethoven”
PERFORMER “The Beatles”
INDEX 00 06:20:15
INDEX 01 06:20:18
TRACK 07 AUDIO
TITLE “All My Loving”
PERFORMER “The Beatles”
INDEX 00 08:36:13
INDEX 01 08:36:15
TRACK 08 AUDIO
TITLE “Things We Said Today”
PERFORMER “The Beatles”
INDEX 00 10:40:15
INDEX 01 10:40:18
TRACK 09 AUDIO
TITLE “She’s A Woman”
PERFORMER “The Beatles”
INDEX 00 12:58:28
INDEX 01 12:58:30
TRACK 10 AUDIO
TITLE “Sweet Little Sixteen”
PERFORMER “The Beatles”
INDEX 00 16:13:03
INDEX 01 16:13:05
TRACK 11 AUDIO
TITLE “1822! (Speech)”
PERFORMER “The Beatles”
INDEX 00 18:33:63
INDEX 01 18:33:65
TRACK 12 AUDIO
TITLE “Lonesome Tears In My Eyes”
PERFORMER “The Beatles”
INDEX 00 18:44:13
INDEX 01 18:44:15
TRACK 13 AUDIO
TITLE “Nothin’ Shakin'”
PERFORMER “The Beatles”
INDEX 00 21:20:20
INDEX 01 21:20:23
TRACK 14 AUDIO
TITLE “The Hippy Hippy Shake”
PERFORMER “The Beatles”
INDEX 00 24:19:35
INDEX 01 24:19:38
TRACK 15 AUDIO
TITLE “Glad All Over”
PERFORMER “The Beatles”
INDEX 00 26:08:35
INDEX 01 26:08:38
TRACK 16 AUDIO
TITLE “I Just Don’t Understand”
PERFORMER “The Beatles”
INDEX 00 28:00:05
INDEX 01 28:00:08
TRACK 17 AUDIO
TITLE “So How Come (No One Loves Me)”
PERFORMER “The Beatles”
INDEX 00 30:46:63
INDEX 01 30:46:65
TRACK 18 AUDIO
TITLE “I Feel Fine”
PERFORMER “The Beatles”
INDEX 00 32:40:33
INDEX 01 32:40:35
TRACK 19 AUDIO
TITLE “I’m A Loser”
PERFORMER “The Beatles”
INDEX 00 34:53:25
INDEX 01 34:53:28
TRACK 20 AUDIO
TITLE “Everybody’s Trying To Be My Baby”
PERFORMER “The Beatles”
INDEX 00 37:25:68
INDEX 01 37:25:70
TRACK 21 AUDIO
TITLE “Rock And Roll Music”
PERFORMER “The Beatles”
INDEX 00 39:46:63
INDEX 01 39:46:65
TRACK 22 AUDIO
TITLE “Ticket To Ride”
PERFORMER “The Beatles”
INDEX 00 41:47:55
INDEX 01 41:47:58
TRACK 23 AUDIO
TITLE “Dizzy Miss Lizzy”
PERFORMER “The Beatles”
INDEX 00 44:44:08
INDEX 01 44:44:10
TRACK 24 AUDIO
TITLE “Medley : Kansas City + Hey! Hey! Hey! Hey!”
PERFORMER “The Beatles”
INDEX 00 47:26:25
INDEX 01 47:26:28
TRACK 25 AUDIO
TITLE “Set Fire To That Lot! (Speech)”
PERFORMER “The Beatles”
INDEX 00 50:03:60
INDEX 01 50:03:63
TRACK 26 AUDIO
TITLE “Matchbox”
PERFORMER “The Beatles”
INDEX 00 50:31:33
INDEX 01 50:31:35
TRACK 27 AUDIO
TITLE “I Forgot To Remember To Forget”
PERFORMER “The Beatles”
INDEX 00 52:28:35
INDEX 01 52:28:38
TRACK 28 AUDIO
TITLE “Love These Goon Shows! (Speech)”
PERFORMER “The Beatles”
INDEX 00 54:37:30
INDEX 01 54:37:33
TRACK 29 AUDIO
TITLE “I Got To Find My Baby”
PERFORMER “The Beatles”
INDEX 00 55:04:18
INDEX 01 55:04:20
TRACK 30 AUDIO
TITLE “Ooh! My Soul”
PERFORMER “The Beatles”
INDEX 00 56:59:55
INDEX 01 56:59:58
TRACK 31 AUDIO
TITLE “Ooh! My Arms”
PERFORMER “The Beatles”
INDEX 00 58:36:20
INDEX 01 58:36:23
TRACK 32 AUDIO
TITLE “Don’t Ever Change”
PERFORMER “The Beatles”
INDEX 00 59:11:58
INDEX 01 59:11:60
TRACK 33 AUDIO
TITLE “Slow Down”
PERFORMER “The Beatles”
INDEX 00 61:14:28
INDEX 01 61:14:30
TRACK 34 AUDIO
TITLE “Honey Don’t”
PERFORMER “The Beatles”
INDEX 00 63:50:45
INDEX 01 63:50:48
TRACK 35 AUDIO
TITLE “Love Me Do”
PERFORMER “The Beatles”
INDEX 00 66:02:05
INDEX 01 66:02:08


Leave a Reply

Your email address will not be published. Required fields are marked *

This site uses Akismet to reduce spam. Learn how your comment data is processed.