The Beatles – Let It Be (Remastered)




Artist: The Beatles
Year: 1970/1987
Genre: Rock
Notes: Discogs
Add. Notes: Remastered
Cover incl.: Yes
Encoder: FLAC
Bitrate: ~700 kBit/s (44.1 kHz/16 Bit/s)
Log & Cue incl.: Yes
Size: 206 MB
Password: “slam” (without ” “)


All Downloads/Hosters are compatible

Download 1
KatFile.com
Turbobit.net
Rapidgator.net
Turbobit.net
Download 2
KatFile.com
Turbobit.net
Rapidgator.net
Turbobit.net

Tracklist:

1 - Two Of Us - 3:36
2 - Dig A Pony - 3:55
3 - Across The Universe - 3:48
4 - I Me Mine - 2:26
5 - Dig It - 0:50
6 - Let It Be - 4:03
7 - Maggie Mae - 0:41
8 - I've Got A Feeling - 3:38
9 - One After 909 - 2:56
10 - The Long And Winding Road - 
3:38
11 - For You Blue - 2:33
12 - Get Back - 3:07

EAC-Log, CUE-Sheed & NFO:

Click to open spoiler
Exact Audio Copy V1.3 from 2. September 2016

EAC extraction logfile from 11. December 2016, 9:28

The Beatles / Let It Be

Used drive : PLEXTOR DVDR PX-891SA Adapter: 1 ID: 0

Read mode : Secure
Utilize accurate stream : Yes
Defeat audio cache : Yes
Make use of C2 pointers : No

Read offset correction : 6
Overread into Lead-In and Lead-Out : No
Fill up missing offset samples with silence : Yes
Delete leading and trailing silent blocks : No
Null samples used in CRC calculations : Yes
Used interface : Native Win32 interface for Win NT & 2000

Used output format : User Defined Encoder
Selected bitrate : 128 kBit/s
Quality : High
Add ID3 tag : No
Command line compressor : C:\Program Files (x86)\Exact Audio Copy\Flac\flac.exe
Additional command line options : -V -8 -T “Genre=%genre%” -T “Artist=%artist%” -T “Title=%title%” -T “Album=%albumtitle%” -T “Date=%year%” -T “Tracknumber=%tracknr%” -T “Comment=%comment%” %source%

TOC of the extracted CD

Track | Start | Length | Start sector | End sector
———————————————————
1 | 0:00.32 | 3:36.03 | 32 | 16234
2 | 3:36.35 | 3:54.62 | 16235 | 33846
3 | 7:31.22 | 3:48.33 | 33847 | 50979
4 | 11:19.55 | 2:25.62 | 50980 | 61916
5 | 13:45.42 | 0:49.73 | 61917 | 65664
6 | 14:35.40 | 4:03.25 | 65665 | 83914
7 | 18:38.65 | 0:40.47 | 83915 | 86961
8 | 19:19.37 | 3:37.68 | 86962 | 103304
9 | 22:57.30 | 2:55.40 | 103305 | 116469
10 | 25:52.70 | 3:37.65 | 116470 | 132809
11 | 29:30.60 | 2:32.55 | 132810 | 144264
12 | 32:03.40 | 3:06.57 | 144265 | 158271

Range status and errors

Selected range

Filename H:\dafnaplus\Let It Be\The Beatles – Let It Be.wav

Peak level 94.9 %
Extraction speed 4.2 X
Range quality 99.8 %
Test CRC A0FB47C6
Copy CRC A0FB47C6
Copy OK

No errors occurred

AccurateRip summary

Track 1 accurately ripped (confidence 2) [9103789F] (AR v2)
Track 2 accurately ripped (confidence 2) [7ABA4076] (AR v2)
Track 3 accurately ripped (confidence 2) [D98E7D82] (AR v2)
Track 4 accurately ripped (confidence 2) [338CCFF3] (AR v2)
Track 5 accurately ripped (confidence 2) [6A294917] (AR v2)
Track 6 accurately ripped (confidence 2) [55CFB3FA] (AR v2)
Track 7 accurately ripped (confidence 2) [DA2716F9] (AR v2)
Track 8 accurately ripped (confidence 2) [BCB3D4D3] (AR v2)
Track 9 accurately ripped (confidence 2) [C8554555] (AR v2)
Track 10 accurately ripped (confidence 2) [AE3552BF] (AR v2)
Track 11 accurately ripped (confidence 2) [D035BFB4] (AR v2)
Track 12 accurately ripped (confidence 2) [9D178270] (AR v2)

All tracks accurately ripped

End of status report

—- CUETools DB Plugin V2.1.6

[CTDB TOCID: 9Xf726ETagfdq22vnmDbA1txemU-] found
Submit result: already submitted
Track | CTDB Status
1 | ( 4/10) Accurately ripped
2 | ( 4/10) Accurately ripped
3 | ( 4/10) Accurately ripped
4 | ( 4/10) Accurately ripped
5 | ( 4/10) Accurately ripped
6 | ( 4/10) Accurately ripped
7 | ( 4/10) Accurately ripped
8 | ( 4/10) Accurately ripped
9 | ( 4/10) Accurately ripped
10 | ( 4/10) Accurately ripped
11 | ( 4/10) Accurately ripped
12 | ( 4/10) Accurately ripped

==== Log checksum C608E740290590A4FA4E64C19D57AD050C6CDF8531A22F88E6D66A0BF9551A98 ====

REM GENRE Rock
REM DATE 1995
REM DISCID A1083E0C
REM COMMENT “ExactAudioCopy v1.3”
PERFORMER “The Beatles”
TITLE “Let It Be”
REM COMPOSER “”
FILE “The Beatles – Let It Be.flac” WAVE
TRACK 01 AUDIO
TITLE “Two Of Us”
PERFORMER “The Beatles”
REM COMPOSER “”
INDEX 00 00:00:00
INDEX 01 00:00:32
TRACK 02 AUDIO
TITLE “Dig A Pony”
PERFORMER “The Beatles”
REM COMPOSER “”
INDEX 00 03:34:25
INDEX 01 03:36:35
TRACK 03 AUDIO
TITLE “Across The Universe”
PERFORMER “The Beatles”
REM COMPOSER “”
INDEX 00 07:29:20
INDEX 01 07:31:22
TRACK 04 AUDIO
TITLE “I Me Mine”
PERFORMER “The Beatles”
REM COMPOSER “”
INDEX 00 11:17:32
INDEX 01 11:19:55
TRACK 05 AUDIO
TITLE “Dig It”
PERFORMER “The Beatles”
REM COMPOSER “”
INDEX 01 13:45:42
TRACK 06 AUDIO
TITLE “Let It Be”
PERFORMER “The Beatles”
REM COMPOSER “”
INDEX 01 14:35:40
TRACK 07 AUDIO
TITLE “Maggie Mae”
PERFORMER “The Beatles”
REM COMPOSER “”
INDEX 00 18:38:15
INDEX 01 18:38:65
TRACK 08 AUDIO
TITLE “I’ve Got A Feeling”
PERFORMER “The Beatles”
REM COMPOSER “”
INDEX 00 19:16:72
INDEX 01 19:19:37
TRACK 09 AUDIO
TITLE “One After 909”
PERFORMER “The Beatles”
REM COMPOSER “”
INDEX 00 22:55:27
INDEX 01 22:57:30
TRACK 10 AUDIO
TITLE “The Long And Winding Road”
PERFORMER “The Beatles”
REM COMPOSER “”
INDEX 00 25:49:15
INDEX 01 25:52:70
TRACK 11 AUDIO
TITLE “For You Blue”
PERFORMER “The Beatles”
REM COMPOSER “”
INDEX 00 29:30:10
INDEX 01 29:30:60
TRACK 12 AUDIO
TITLE “Get Back”
PERFORMER “The Beatles”
REM COMPOSER “”
INDEX 00 32:01:25
INDEX 01 32:03:40


Leave a Reply

Your email address will not be published. Required fields are marked *

This site uses Akismet to reduce spam. Learn how your comment data is processed.