The Beatles – Let It Be… Naked




[Total: 0    Average: 0/5]

Artist: The Beatles
Year: 2003
Genre: Rock
Notes: Discogs
Add. Notes:
Cover incl.: Yes
Encoder: FLAC
Bitrate: ~800 kBit/s (44.1 kHz/16 Bit/s)
Log & Cue incl.: Yes
Size: 340,98 MB
Password: “slam” (without ” “)


All Downloads/Hosters are compatible

Download 1
Share-online.biz
KatFile.com
Rapidgator.net
Download 2
Share-online.biz
KatFile.com
Rapidgator.net

Tracklist:

CD 1:
01. Get Back  2:35
02. Dig A Pony  3:38
03. For You Blue  2:28
04. The Long And Winding Road  3:34
05. Two Of Us  3:21
06. I've Got A Feeling  3:31
07. One After 909  2:44
08. Don't Let Me Down  3:19
09. I Me Mine  2:21
10. Across The Universe  3:38
11. Let It Be  3:54

CD 2:
01. Fly On The Wall  21:56

EAC-Log, CUE-Sheed & NFO:

Click to open spoiler
Exact Audio Copy V1.0 beta 3 from 29. August 2011

EAC extraction logfile from 4. October 2013, 18:28

The Beatles / Let It Be… Naked (Disc 1)

Used drive : PLEXTOR DVDR PX-891SA Adapter: 1 ID: 0

Read mode : Secure
Utilize accurate stream : Yes
Defeat audio cache : Yes
Make use of C2 pointers : No

Read offset correction : 6
Overread into Lead-In and Lead-Out : No
Fill up missing offset samples with silence : Yes
Delete leading and trailing silent blocks : No
Null samples used in CRC calculations : Yes
Used interface : Native Win32 interface for Win NT & 2000

Used output format : User Defined Encoder
Selected bitrate : 1024 kBit/s
Quality : High
Add ID3 tag : No
Command line compressor : C:\Program Files\Exact Audio Copy\Flac\flac.exe
Additional command line options : -V -8 -T “Genre=%genre%” -T “Artist=%artist%” -T “Title=%title%” -T “Album=%albumtitle%” -T “Date=%year%” -T “Tracknumber=%tracknr%” -T “Comment=%comment%” %source%

TOC of the extracted CD

Track | Start | Length | Start sector | End sector
———————————————————
1 | 0:00.00 | 2:34.42 | 0 | 11591
2 | 2:34.42 | 3:38.13 | 11592 | 27954
3 | 6:12.55 | 2:27.57 | 27955 | 39036
4 | 8:40.37 | 3:34.10 | 39037 | 55096
5 | 12:14.47 | 3:21.05 | 55097 | 70176
6 | 15:35.52 | 3:30.63 | 70177 | 85989
7 | 19:06.40 | 2:44.00 | 85990 | 98289
8 | 21:50.40 | 3:18.50 | 98290 | 113189
9 | 25:09.15 | 2:21.15 | 113190 | 123779
10 | 27:30.30 | 3:38.12 | 123780 | 140141
11 | 31:08.42 | 3:53.70 | 140142 | 157686

Range status and errors

Selected range

Filename I:\dafnaplus\The Beatles\2003 – Let It Be… Naked\Disc 1\The Beatles – Let It Be… Naked (Disc 1).wav

Peak level 99.2 %
Extraction speed 7.5 X
Range quality 100.0 %
Test CRC AF958616
Copy CRC AF958616
Copy OK

No errors occurred

AccurateRip summary

Track 1 accurately ripped (confidence 104) [AC71045F] (AR v2)
Track 2 accurately ripped (confidence 103) [1D2333E8] (AR v2)
Track 3 accurately ripped (confidence 103) [9928CE05] (AR v2)
Track 4 accurately ripped (confidence 102) [9EFC5711] (AR v2)
Track 5 accurately ripped (confidence 102) [62566DA1] (AR v2)
Track 6 accurately ripped (confidence 102) [78408993] (AR v2)
Track 7 accurately ripped (confidence 99) [9B4B87E7] (AR v2)
Track 8 accurately ripped (confidence 99) [9F213E2B] (AR v2)
Track 9 accurately ripped (confidence 100) [1C337612] (AR v2)
Track 10 accurately ripped (confidence 99) [D84F1B84] (AR v2)
Track 11 accurately ripped (confidence 99) [CAAB8E71] (AR v2)

All tracks accurately ripped

End of status report

==== Log checksum E65CA08D5E9FE815A4C911FE09F3413FAB496B3EBE54228B83FA38CBF02214DE ====

Exact Audio Copy V1.0 beta 3 from 29. August 2011

EAC extraction logfile from 4. October 2013, 18:57

The Beatles / Let It Be… Naked (Disc 2)

Used drive : PLEXTOR DVDR PX-891SA Adapter: 1 ID: 0

Read mode : Secure
Utilize accurate stream : Yes
Defeat audio cache : Yes
Make use of C2 pointers : No

Read offset correction : 6
Overread into Lead-In and Lead-Out : No
Fill up missing offset samples with silence : Yes
Delete leading and trailing silent blocks : No
Null samples used in CRC calculations : Yes
Used interface : Native Win32 interface for Win NT & 2000

Used output format : User Defined Encoder
Selected bitrate : 1024 kBit/s
Quality : High
Add ID3 tag : No
Command line compressor : C:\Program Files\Exact Audio Copy\Flac\flac.exe
Additional command line options : -V -8 -T “Genre=%genre%” -T “Artist=%artist%” -T “Title=%title%” -T “Album=%albumtitle%” -T “Date=%year%” -T “Tracknumber=%tracknr%” -T “Comment=%comment%” %source%

TOC of the extracted CD

Track | Start | Length | Start sector | End sector
———————————————————
1 | 0:00.00 | 21:56.10 | 0 | 98709

Range status and errors

Selected range

Filename I:\dafnaplus\The Beatles\2003 – Let It Be… Naked\Disc 2\The Beatles – Let It Be… Naked (Disc 2).wav

Peak level 89.1 %
Extraction speed 6.6 X
Range quality 100.0 %
Test CRC B62A1DF8
Copy CRC B62A1DF8
Copy OK

No errors occurred

AccurateRip summary

Track 1 accurately ripped (confidence 55) [E8C0D69E] (AR v2)

All tracks accurately ripped

End of status report

==== Log checksum 81F711D0D389420BC0696F80ECE9E1083C47036D5CF122CFFDDFDCB2EE6D633A ====

REM GENRE Rock
REM DATE 2003
REM DISCID 8308360B
REM COMMENT “ExactAudioCopy v1.0b3”
CATALOG 0724359523125
PERFORMER “The Beatles”
TITLE “Let It Be… Naked (Disc 1)”
FILE “The Beatles – Let It Be… Naked (Disc 1).flac” WAVE
TRACK 01 AUDIO
TITLE “Get Back”
PERFORMER “The Beatles”
ISRC GBAYE0302294
INDEX 01 00:00:00
TRACK 02 AUDIO
TITLE “Dig A Pony”
PERFORMER “The Beatles”
ISRC GBAYE0302295
INDEX 00 02:34:27
INDEX 01 02:34:42
TRACK 03 AUDIO
TITLE “For You Blue”
PERFORMER “The Beatles”
ISRC GBAYE0302296
INDEX 01 06:12:55
TRACK 04 AUDIO
TITLE “The Long And Winding Road”
PERFORMER “The Beatles”
ISRC GBAYE0302297
INDEX 01 08:40:37
TRACK 05 AUDIO
TITLE “Two Of Us”
PERFORMER “The Beatles”
ISRC GBAYE0302298
INDEX 01 12:14:47
TRACK 06 AUDIO
TITLE “I’ve Got A Feeling”
PERFORMER “The Beatles”
ISRC GBAYE0302299
INDEX 01 15:35:52
TRACK 07 AUDIO
TITLE “One After 909”
PERFORMER “The Beatles”
ISRC GBAYE0302300
INDEX 01 19:06:40
TRACK 08 AUDIO
TITLE “Don’t Let Me Down”
PERFORMER “The Beatles”
ISRC GBAYE0302301
INDEX 01 21:50:40
TRACK 09 AUDIO
TITLE “I Me Mine”
PERFORMER “The Beatles”
ISRC GBAYE0302303
INDEX 01 25:09:15
TRACK 10 AUDIO
TITLE “Across The Universe”
PERFORMER “The Beatles”
ISRC GBAYE0302302
INDEX 00 27:29:70
INDEX 01 27:30:30
TRACK 11 AUDIO
TITLE “Let It Be”
PERFORMER “The Beatles”
ISRC GBAYE0302304
INDEX 01 31:08:42

REM GENRE Rock
REM DATE 2003
REM DISCID 02052401
REM COMMENT “ExactAudioCopy v1.0b3”
CATALOG 0724359569826
PERFORMER “The Beatles”
TITLE “Let It Be… Naked (Disc 2)”
FILE “The Beatles – Let It Be… Naked (Disc 2).flac” WAVE
TRACK 01 AUDIO
TITLE “Fly On The Wall”
PERFORMER “The Beatles”
ISRC GBAYE0302305
INDEX 01 00:00:00


Spread the Download

Leave a Reply

Your email address will not be published. Required fields are marked *

Enter the text from the image below
 

This site uses Akismet to reduce spam. Learn how your comment data is processed.