The Beatles – Help!




[Total: 0    Average: 0/5]

Artist: The Beatles
Year: 1987
Genre: Rock
Notes: Discogs
Add. Notes:
Cover incl.: Yes
Encoder: FLAC
Bitrate: ~800 kBit/s (44.1 kHz/16 Bit/s)
Log & Cue incl.: Yes
Size: 241,66 MB
Password: “slam” (without ” “)


All Downloads/Hosters are compatible

Download 1
Share-online.biz
KatFile.com
Rapidgator.net
Download 2
Share-online.biz
KatFile.com
Rapidgator.net

Tracklist:

01. Help 2:21
02. The Night Before 2:37
03. You've Got To Hide Your Love Away 2:11
04. I Need You 2:31
05. Another Girl 2:08
06. You're Going To Lose That Girl 2:20
07. Ticket To Ride 3:12
08. Act Naturally 2:33
09. It's Only Love 1:59
10. You Like Me Too Much 2:39
11. Tell Me What You See 2:40
12. I've Just Seen A Face 2:07
13. Yesterday 2:07
14. Dizzy Miss Lizzie 2:54

EAC-Log, CUE-Sheed & NFO:

Click to open spoiler
Exact Audio Copy V1.3 from 2. September 2016

EAC extraction logfile from 11. July 2017, 21:11

The Beatles / Help! (CDP 7 46439 2)

Used drive : PLEXTOR DVDR PX-891SA Adapter: 1 ID: 0

Read mode : Secure
Utilize accurate stream : Yes
Defeat audio cache : Yes
Make use of C2 pointers : No

Read offset correction : 6
Overread into Lead-In and Lead-Out : No
Fill up missing offset samples with silence : Yes
Delete leading and trailing silent blocks : No
Null samples used in CRC calculations : Yes
Used interface : Native Win32 interface for Win NT & 2000

Used output format : User Defined Encoder
Selected bitrate : 128 kBit/s
Quality : High
Add ID3 tag : No
Command line compressor : C:\Program Files (x86)\Exact Audio Copy\Flac\flac.exe
Additional command line options : -V -8 -T “Genre=%genre%” -T “Artist=%artist%” -T “Title=%title%” -T “Album=%albumtitle%” -T “Date=%year%” -T “Tracknumber=%tracknr%” -T “Comment=%comment%” %source%

TOC of the extracted CD

Track | Start | Length | Start sector | End sector
———————————————————
1 | 0:00.33 | 2:21.05 | 33 | 10612
2 | 2:21.38 | 2:36.52 | 10613 | 22364
3 | 4:58.15 | 2:11.33 | 22365 | 32222
4 | 7:09.48 | 2:31.37 | 32223 | 43584
5 | 9:41.10 | 2:08.00 | 43585 | 53184
6 | 11:49.10 | 2:20.33 | 53185 | 63717
7 | 14:09.43 | 3:12.37 | 63718 | 78154
8 | 17:22.05 | 2:33.13 | 78155 | 89642
9 | 19:55.18 | 1:58.60 | 89643 | 98552
10 | 21:54.03 | 2:38.60 | 98553 | 110462
11 | 24:32.63 | 2:39.52 | 110463 | 122439
12 | 27:12.40 | 2:07.13 | 122440 | 131977
13 | 29:19.53 | 2:07.32 | 131978 | 141534
14 | 31:27.10 | 2:54.20 | 141535 | 154604

Range status and errors

Selected range

Filename H:\dafnaplus\Help\The Beatles – Help! (CDP 7 46439 2).wav

Peak level 100.0 %
Extraction speed 6.0 X
Range quality 99.9 %
Test CRC 5AF4E0DA
Copy CRC 5AF4E0DA
Copy OK

No errors occurred

AccurateRip summary

Track 1 accurately ripped (confidence 34) [50F22EF5] (AR v2)
Track 2 accurately ripped (confidence 34) [918F8009] (AR v2)
Track 3 accurately ripped (confidence 35) [91610C85] (AR v2)
Track 4 accurately ripped (confidence 34) [71926F1A] (AR v2)
Track 5 accurately ripped (confidence 34) [429DBB0E] (AR v2)
Track 6 accurately ripped (confidence 35) [6AFB7BA8] (AR v2)
Track 7 accurately ripped (confidence 35) [4A8D4244] (AR v2)
Track 8 accurately ripped (confidence 35) [4FE10561] (AR v2)
Track 9 accurately ripped (confidence 35) [20394488] (AR v2)
Track 10 accurately ripped (confidence 35) [ABB8CAC3] (AR v2)
Track 11 accurately ripped (confidence 35) [D0FA40A9] (AR v2)
Track 12 accurately ripped (confidence 35) [C1B867A6] (AR v2)
Track 13 accurately ripped (confidence 34) [389D4515] (AR v2)
Track 14 accurately ripped (confidence 34) [B3061DFD] (AR v2)

All tracks accurately ripped

End of status report

—- CUETools DB Plugin V2.1.6

[CTDB TOCID: pRET0Bw1b5b_ZKgDEQ.mHHG3Ecw-] found
Submit result: pRET0Bw1b5b_ZKgDEQ.mHHG3Ecw- has been confirmed
Track | CTDB Status
1 | (1005/1024) Accurately ripped
2 | (1006/1024) Accurately ripped
3 | (1010/1024) Accurately ripped
4 | (1011/1024) Accurately ripped
5 | (1005/1024) Accurately ripped, or (2/1024) differs in 45 samples @01:50:50
6 | (1003/1024) Accurately ripped
7 | (1007/1024) Accurately ripped
8 | (1010/1024) Accurately ripped
9 | (1006/1024) Accurately ripped
10 | (1008/1024) Accurately ripped
11 | (1013/1024) Accurately ripped
12 | (1005/1024) Accurately ripped
13 | (995/1024) Accurately ripped, or (6/1024) differs in 1361 samples @01:00:51-01:00:52
14 | (994/1024) Accurately ripped

==== Log checksum 8B9D5DA3EF551A78CDFE7C684395124E4D72CEEE3FB224D5E876B02B54059EE1 ====

REM GENRE Rock
REM DATE 1987
REM DISCID A9080D0E
REM COMMENT “ExactAudioCopy v1.3”
PERFORMER “The Beatles”
TITLE “Help! (CDP 7 46439 2)”
REM COMPOSER “”
FILE “The Beatles – Help! (CDP 7 46439 2).flac” WAVE
TRACK 01 AUDIO
TITLE “Help”
PERFORMER “The Beatles”
REM COMPOSER “”
INDEX 00 00:00:00
INDEX 01 00:00:33
TRACK 02 AUDIO
TITLE “The Night Before”
PERFORMER “The Beatles”
REM COMPOSER “”
INDEX 00 02:18:63
INDEX 01 02:21:38
TRACK 03 AUDIO
TITLE “You’ve Got To Hide Your Love Away”
PERFORMER “The Beatles”
REM COMPOSER “”
INDEX 00 04:55:65
INDEX 01 04:58:15
TRACK 04 AUDIO
TITLE “I Need You”
PERFORMER “The Beatles”
REM COMPOSER “”
INDEX 00 07:06:60
INDEX 01 07:09:48
TRACK 05 AUDIO
TITLE “Another Girl”
PERFORMER “The Beatles”
REM COMPOSER “”
INDEX 00 09:38:18
INDEX 01 09:41:10
TRACK 06 AUDIO
TITLE “You’re Going To Lose That Girl”
PERFORMER “The Beatles”
REM COMPOSER “”
INDEX 00 11:46:13
INDEX 01 11:49:10
TRACK 07 AUDIO
TITLE “Ticket To Ride”
PERFORMER “The Beatles”
REM COMPOSER “”
INDEX 00 14:07:10
INDEX 01 14:09:43
TRACK 08 AUDIO
TITLE “Act Naturally”
PERFORMER “The Beatles”
REM COMPOSER “”
INDEX 00 17:19:18
INDEX 01 17:22:05
TRACK 09 AUDIO
TITLE “It’s Only Love”
PERFORMER “The Beatles”
REM COMPOSER “”
INDEX 00 19:52:00
INDEX 01 19:55:18
TRACK 10 AUDIO
TITLE “You Like Me Too Much”
PERFORMER “The Beatles”
REM COMPOSER “”
INDEX 00 21:51:28
INDEX 01 21:54:03
TRACK 11 AUDIO
TITLE “Tell Me What You See”
PERFORMER “The Beatles”
REM COMPOSER “”
INDEX 00 24:29:73
INDEX 01 24:32:63
TRACK 12 AUDIO
TITLE “I’ve Just Seen A Face”
PERFORMER “The Beatles”
REM COMPOSER “”
INDEX 00 27:09:40
INDEX 01 27:12:40
TRACK 13 AUDIO
TITLE “Yesterday”
PERFORMER “The Beatles”
REM COMPOSER “”
INDEX 00 29:16:73
INDEX 01 29:19:53
TRACK 14 AUDIO
TITLE “Dizzy Miss Lizzie”
PERFORMER “The Beatles”
REM COMPOSER “”
INDEX 00 31:24:03
INDEX 01 31:27:10


Spread the Download

Leave a Reply

Your email address will not be published. Required fields are marked *

Enter the text from the image below
 

This site uses Akismet to reduce spam. Learn how your comment data is processed.