The Beatles – Help! (Remastered Japanese Edition)




No Cover available

Artist: The Beatles
Year: 1965/2014
Genre: Rock
Notes: Discogs
Add. Notes: Remastered Japanese Edition
Watch Songs on: YouTube
Cover incl.: Yes
Encoder: FLAC
Bitrate: ~800 kBit/s (44.1 kHz/16 Bit/s)
Log & Cue incl.: Yes/Yes
Size: 232,6 MB
Password: “slam” (without ” “)


All Downloads/Hosters are compatible

Download 1
KatFile.com
Turbobit.net
FileFactory.com
Rapidgator.net
Download 2
KatFile.com
Turbobit.net
FileFactory.com
Rapidgator.net

Tracklist:

1 Help! 
2 The Night Before 
3 You've Got To Hide Your Love Away 
4 I Need You 
5 Another Girl 
6 You're Going To Lose That Girl 
7 Ticket To Ride 
8 Act Naturally 
9 It's Only Love 
10 You Like Me Too Much 
11 Tell Me What You See 
12 I've Just Seen A Face 
13 Yesterday 
14 Dizzy Miss Lizzy

EAC-Log, CUE-Sheed & NFO:

Click to open spoiler
Exact Audio Copy V1.0 beta 3 from 29. August 2011

EAC extraction logfile from 16. August 2014, 9:30

The Beatles / Help! (UICY-76433)

Used drive : PLEXTOR DVDR PX-891SA Adapter: 3 ID: 0

Read mode : Secure
Utilize accurate stream : Yes
Defeat audio cache : Yes
Make use of C2 pointers : No

Read offset correction : 6
Overread into Lead-In and Lead-Out : No
Fill up missing offset samples with silence : Yes
Delete leading and trailing silent blocks : No
Null samples used in CRC calculations : Yes
Used interface : Native Win32 interface for Win NT & 2000

Used output format : User Defined Encoder
Selected bitrate : 1024 kBit/s
Quality : High
Add ID3 tag : No
Command line compressor : C:\Program Files\Exact Audio Copy\Flac\flac.exe
Additional command line options : -V -8 -T “Genre=%genre%” -T “Artist=%artist%” -T “Title=%title%” -T “Album=%albumtitle%” -T “Date=%year%” -T “Tracknumber=%tracknr%” -T “Comment=%comment%” %source%

TOC of the extracted CD

Track | Start | Length | Start sector | End sector
———————————————————
1 | 0:00.00 | 2:23.74 | 0 | 10798
2 | 2:23.74 | 2:37.45 | 10799 | 22618
3 | 5:01.44 | 2:12.04 | 22619 | 32522
4 | 7:13.48 | 2:32.24 | 32523 | 43946
5 | 9:45.72 | 2:09.29 | 43947 | 53650
6 | 11:55.26 | 2:21.36 | 53651 | 64261
7 | 14:16.62 | 3:11.74 | 64262 | 78660
8 | 17:28.61 | 2:33.36 | 78661 | 90171
9 | 20:02.22 | 1:59.42 | 90172 | 99138
10 | 22:01.64 | 2:39.69 | 99139 | 111132
11 | 24:41.58 | 2:40.57 | 111133 | 123189
12 | 27:22.40 | 2:08.30 | 123190 | 132819
13 | 29:30.70 | 2:09.10 | 132820 | 142504
14 | 31:40.05 | 2:55.62 | 142505 | 155691

Range status and errors

Selected range

Filename H:\dafnaplus\The Japan Box\5. Help!\The Beatles – Help! (UICY-76433).wav

Peak level 88.1 %
Extraction speed 7.8 X
Range quality 100.0 %
Test CRC 88B7AF5D
Copy CRC 88B7AF5D
Copy OK

No errors occurred

AccurateRip summary

Track 1 accurately ripped (confidence 2) [D9E2B598] (AR v2)
Track 2 accurately ripped (confidence 2) [980A5466] (AR v2)
Track 3 accurately ripped (confidence 2) [ABE05BD0] (AR v2)
Track 4 accurately ripped (confidence 2) [AF20714E] (AR v2)
Track 5 accurately ripped (confidence 2) [BFFE8C13] (AR v2)
Track 6 accurately ripped (confidence 2) [1CB1BC92] (AR v2)
Track 7 accurately ripped (confidence 2) [79F6B6A2] (AR v2)
Track 8 accurately ripped (confidence 2) [A050A8C9] (AR v2)
Track 9 accurately ripped (confidence 2) [1E33E235] (AR v2)
Track 10 accurately ripped (confidence 2) [E58A14F5] (AR v2)
Track 11 accurately ripped (confidence 2) [8338CD87] (AR v2)
Track 12 accurately ripped (confidence 2) [CF950CDD] (AR v2)
Track 13 accurately ripped (confidence 2) [5D6E53F4] (AR v2)
Track 14 accurately ripped (confidence 2) [7550882F] (AR v2)

All tracks accurately ripped

End of status report

==== Log checksum 748CA1665DC137D8EB1EA670B2FB3885CE21CB4D7ED96C39124CD907D198042F ====

REM GENRE Rock
REM DATE 2014
REM DISCID A8081B0E
REM COMMENT “ExactAudioCopy v1.0b3”
PERFORMER “The Beatles”
TITLE “Help! (UICY-76433)”
FILE “The Beatles – Help! (UICY-76433).flac” WAVE
TRACK 01 AUDIO
TITLE “Help!”
PERFORMER “The Beatles”
INDEX 01 00:00:00
TRACK 02 AUDIO
TITLE “The Night Before”
PERFORMER “The Beatles”
INDEX 01 02:23:74
TRACK 03 AUDIO
TITLE “You’ve Got To Hide Your Love Away”
PERFORMER “The Beatles”
INDEX 01 05:01:44
TRACK 04 AUDIO
TITLE “I Need You”
PERFORMER “The Beatles”
INDEX 01 07:13:48
TRACK 05 AUDIO
TITLE “Another Girl”
PERFORMER “The Beatles”
INDEX 01 09:45:72
TRACK 06 AUDIO
TITLE “You’re Going To Lose That Girl”
PERFORMER “The Beatles”
INDEX 01 11:55:26
TRACK 07 AUDIO
TITLE “Ticket To Ride”
PERFORMER “The Beatles”
INDEX 01 14:16:62
TRACK 08 AUDIO
TITLE “Act Naturally”
PERFORMER “The Beatles”
INDEX 01 17:28:61
TRACK 09 AUDIO
TITLE “It’s Only Love”
PERFORMER “The Beatles”
INDEX 01 20:02:22
TRACK 10 AUDIO
TITLE “You Like Me Too Much”
PERFORMER “The Beatles”
INDEX 01 22:01:64
TRACK 11 AUDIO
TITLE “Tell Me What You See”
PERFORMER “The Beatles”
INDEX 01 24:41:58
TRACK 12 AUDIO
TITLE “I’ve Just Seen A Face”
PERFORMER “The Beatles”
INDEX 01 27:22:40
TRACK 13 AUDIO
TITLE “Yesterday”
PERFORMER “The Beatles”
INDEX 01 29:30:70
TRACK 14 AUDIO
TITLE “Dizzy Miss Lizzie”
PERFORMER “The Beatles”
INDEX 01 31:40:05


Leave a Reply

Your email address will not be published. Required fields are marked *

Enter the text from the image below
 

This site uses Akismet to reduce spam. Learn how your comment data is processed.