The Beatles – Help! (Reissue)




Artist: The Beatles
Year: 1965/1995
Genre: Rock
Notes: Discogs
Add. Notes: Reissue
Cover incl.: Yes
Encoder: FLAC
Bitrate: ~800 kBit/s (44.1 kHz/16 Bit/s)
Log & Cue incl.: Yes
Size: 238,7 MB
Password: “slam” (without ” “)


All Downloads/Hosters are compatible

Download 1
KatFile.com
Turbobit.net
FileFactory.com
Rapidgator.net
Download 2
KatFile.com
Turbobit.net
FileFactory.com
Rapidgator.net

Tracklist:

01. Help!  2:21
02. The Night Before  2:37
03. You've Got To Hide Your Love Away  2:11
04. I Need You  2:32
05. Another Girl  2:08
06. You're Going To Lose That Girl  2:20
07. Ticket To Ride  3:13
08. Act Naturally  2:33
09. It's Only Love  1:59
10. You Like Me Too Much  2:39
11. Tell Me What You See  2:40
12. I've Just Seen A Face  2:07
13. Yesterday  2:07
14. Dizzy Miss Lizzie  2:54

EAC-Log, CUE-Sheed & NFO:

Click to open spoiler
Exact Audio Copy V1.3 from 2. September 2016

EAC extraction logfile from 11. December 2016, 20:02

The Beatles / Help!

Used drive : PLEXTOR DVDR PX-891SA Adapter: 1 ID: 0

Read mode : Secure
Utilize accurate stream : Yes
Defeat audio cache : Yes
Make use of C2 pointers : No

Read offset correction : 6
Overread into Lead-In and Lead-Out : No
Fill up missing offset samples with silence : Yes
Delete leading and trailing silent blocks : No
Null samples used in CRC calculations : Yes
Used interface : Native Win32 interface for Win NT & 2000

Used output format : User Defined Encoder
Selected bitrate : 128 kBit/s
Quality : High
Add ID3 tag : No
Command line compressor : C:\Program Files (x86)\Exact Audio Copy\Flac\flac.exe
Additional command line options : -V -8 -T “Genre=%genre%” -T “Artist=%artist%” -T “Title=%title%” -T “Album=%albumtitle%” -T “Date=%year%” -T “Tracknumber=%tracknr%” -T “Comment=%comment%” %source%

TOC of the extracted CD

Track | Start | Length | Start sector | End sector
———————————————————
1 | 0:00.32 | 2:21.05 | 32 | 10611
2 | 2:21.37 | 2:36.53 | 10612 | 22364
3 | 4:58.15 | 2:11.32 | 22365 | 32221
4 | 7:09.47 | 2:31.38 | 32222 | 43584
5 | 9:41.10 | 2:08.00 | 43585 | 53184
6 | 11:49.10 | 2:20.32 | 53185 | 63716
7 | 14:09.42 | 3:12.38 | 63717 | 78154
8 | 17:22.05 | 2:33.12 | 78155 | 89641
9 | 19:55.17 | 1:58.60 | 89642 | 98551
10 | 21:54.02 | 2:38.60 | 98552 | 110461
11 | 24:32.62 | 2:39.53 | 110462 | 122439
12 | 27:12.40 | 2:07.12 | 122440 | 131976
13 | 29:19.52 | 2:07.33 | 131977 | 141534
14 | 31:27.10 | 2:54.20 | 141535 | 154604

Range status and errors

Selected range

Filename H:\dafnaplus\Beatles – Help!\The Beatles – Help!.wav

Peak level 100.0 %
Extraction speed 7.0 X
Range quality 99.9 %
Test CRC C84B9645
Copy CRC C84B9645
Copy OK

No errors occurred

AccurateRip summary

Track 1 accurately ripped (confidence 49) [7716E027] (AR v2)
Track 2 accurately ripped (confidence 49) [09DADEAA] (AR v2)
Track 3 accurately ripped (confidence 49) [AA609E9D] (AR v2)
Track 4 accurately ripped (confidence 50) [E1671254] (AR v2)
Track 5 accurately ripped (confidence 50) [CED59D35] (AR v2)
Track 6 accurately ripped (confidence 50) [7838B347] (AR v2)
Track 7 accurately ripped (confidence 49) [A4C2CFA8] (AR v2)
Track 8 accurately ripped (confidence 49) [5DD870A5] (AR v2)
Track 9 accurately ripped (confidence 49) [124DFDC6] (AR v2)
Track 10 accurately ripped (confidence 49) [E5AC7E5C] (AR v2)
Track 11 accurately ripped (confidence 50) [A11CEE14] (AR v2)
Track 12 accurately ripped (confidence 51) [874DA050] (AR v2)
Track 13 accurately ripped (confidence 48) [9EEEDC5C] (AR v2)
Track 14 accurately ripped (confidence 48) [9BF6648A] (AR v2)

All tracks accurately ripped

End of status report

—- CUETools DB Plugin V2.1.6

[CTDB TOCID: qwH7TMgRdNQfRgimCjl2hmPO45U-] found
Submit result: qwH7TMgRdNQfRgimCjl2hmPO45U- has been confirmed
Track | CTDB Status
1 | (220/230) Accurately ripped
2 | (220/230) Accurately ripped
3 | (223/230) Accurately ripped
4 | (221/230) Accurately ripped
5 | (223/230) Accurately ripped
6 | (223/230) Accurately ripped
7 | (223/230) Accurately ripped
8 | (219/230) Accurately ripped
9 | (224/230) Accurately ripped
10 | (223/230) Accurately ripped
11 | (220/230) Accurately ripped
12 | (222/230) Accurately ripped
13 | (222/230) Accurately ripped
14 | (219/230) Accurately ripped

==== Log checksum 4A7FF2C1211F4169F853A834DDE88F40301318C6BF0830104E8272398F2311E3 ====

REM GENRE Rock
REM DATE 1995
REM DISCID A9080D0E
REM COMMENT “ExactAudioCopy v1.3”
PERFORMER “The Beatles”
TITLE “Help!”
REM COMPOSER “”
FILE “The Beatles – Help!.flac” WAVE
TRACK 01 AUDIO
TITLE “Help”
PERFORMER “The Beatles”
REM COMPOSER “”
INDEX 00 00:00:00
INDEX 01 00:00:32
TRACK 02 AUDIO
TITLE “The Night Before”
PERFORMER “The Beatles”
REM COMPOSER “”
INDEX 00 02:18:62
INDEX 01 02:21:37
TRACK 03 AUDIO
TITLE “You’ve Got To Hide Your Love Away”
PERFORMER “The Beatles”
REM COMPOSER “”
INDEX 00 04:55:65
INDEX 01 04:58:15
TRACK 04 AUDIO
TITLE “I Need You”
PERFORMER “The Beatles”
REM COMPOSER “”
INDEX 00 07:06:60
INDEX 01 07:09:47
TRACK 05 AUDIO
TITLE “Another Girl”
PERFORMER “The Beatles”
REM COMPOSER “”
INDEX 00 09:38:17
INDEX 01 09:41:10
TRACK 06 AUDIO
TITLE “You’re Going To Lose That Girl”
PERFORMER “The Beatles”
REM COMPOSER “”
INDEX 00 11:46:12
INDEX 01 11:49:10
TRACK 07 AUDIO
TITLE “Ticket To Ride”
PERFORMER “The Beatles”
REM COMPOSER “”
INDEX 00 14:07:10
INDEX 01 14:09:42
TRACK 08 AUDIO
TITLE “Act Naturally”
PERFORMER “The Beatles”
REM COMPOSER “”
INDEX 00 17:19:17
INDEX 01 17:22:05
TRACK 09 AUDIO
TITLE “It’s Only Love”
PERFORMER “The Beatles”
REM COMPOSER “”
INDEX 00 19:52:00
INDEX 01 19:55:17
TRACK 10 AUDIO
TITLE “You Like Me Too Much”
PERFORMER “The Beatles”
REM COMPOSER “”
INDEX 00 21:51:27
INDEX 01 21:54:02
TRACK 11 AUDIO
TITLE “Tell Me What You See”
PERFORMER “The Beatles”
REM COMPOSER “”
INDEX 00 24:29:72
INDEX 01 24:32:62
TRACK 12 AUDIO
TITLE “I’ve Just Seen A Face”
PERFORMER “The Beatles”
REM COMPOSER “”
INDEX 00 27:09:40
INDEX 01 27:12:40
TRACK 13 AUDIO
TITLE “Yesterday”
PERFORMER “The Beatles”
REM COMPOSER “”
INDEX 00 29:16:72
INDEX 01 29:19:52
TRACK 14 AUDIO
TITLE “Dizzy Miss Lizzie”
PERFORMER “The Beatles”
REM COMPOSER “”
INDEX 00 31:24:02
INDEX 01 31:27:10


Leave a Reply

Your email address will not be published. Required fields are marked *

This site uses Akismet to reduce spam. Learn how your comment data is processed.