The Beatles – Help! (Reissue)




Artist: The Beatles
Year: 1965/1989
Genre: Rock
Notes: Discogs
Add. Notes: Reissue
Cover incl.: Yes
Encoder: FLAC
Bitrate: ~800 kBit/s (44.1 kHz/16 Bit/s)
Log & Cue incl.: Yes
Size: 251 MB
Password: “slam” (without ” “)


All Downloads/Hosters are compatible

Download 1
KatFile.com
Rapidgator.net
Turbobit.net
FileFactory.com
Download 2
KatFile.com
Rapidgator.net
Turbobit.net
FileFactory.com

Tracklist:

01 - Help! - 2:21
02 - The Night Before - 2:36
03 - You've Got To Hide Your Love 
Away - 2:11
04 - I Need You - 2:31
05 - Another Girl - 2:08
06 - You're Going To Lose That Girl - 
2:20
07 - Ticket To Ride - 3:12
08 - Act Naturally - 2:33
09 - It's Only Love - 1:58
10 - You Like Me Too Much - 2:38
11 - Tell Me What You See - 2:39
12 - I've Just Seen A Face - 2:07
13 - Yesterday - 2:07
14 - Dizzy Miss Lizzie - 2:54

EAC-Log, CUE-Sheed & NFO:

Click to open spoiler
Exact Audio Copy V1.0 beta 4 from 7. December 2014

EAC extraction logfile from 10. November 2015, 10:35

The Beatles / Help!

Used drive : PLEXTOR CD-R PX-240A Adapter: 0 ID: 0

Read mode : Secure
Utilize accurate stream : Yes
Defeat audio cache : Yes
Make use of C2 pointers : No

Read offset correction : 6
Overread into Lead-In and Lead-Out : No
Fill up missing offset samples with silence : Yes
Delete leading and trailing silent blocks : No
Null samples used in CRC calculations : Yes
Used interface : Installed external ASPI interface

Used output format : Internal WAV Routines
Sample format : 44.100 Hz; 16 Bit; Stereo

TOC of the extracted CD

Track | Start | Length | Start sector | End sector
———————————————————
1 | 0:00.33 | 2:23.27 | 33 | 10784
2 | 2:23.60 | 2:37.35 | 10785 | 22594
3 | 5:01.20 | 2:12.15 | 22595 | 32509
4 | 7:13.35 | 2:32.13 | 32510 | 43922
5 | 9:45.48 | 2:09.25 | 43923 | 53622
6 | 11:54.73 | 2:21.40 | 53623 | 64237
7 | 14:16.38 | 3:11.70 | 64238 | 78632
8 | 17:28.33 | 2:33.32 | 78633 | 90139
9 | 20:01.65 | 1:59.35 | 90140 | 99099
10 | 22:01.25 | 2:39.60 | 99100 | 111084
11 | 24:41.10 | 2:39.20 | 111085 | 123029
12 | 27:20.30 | 2:08.30 | 123030 | 132659
13 | 29:28.60 | 2:09.03 | 132660 | 142337
14 | 31:37.63 | 2:54.32 | 142338 | 155419

Range status and errors

Selected range

Filename Z:\data\hexonut\Seeding\The Beatles-1965-Help! [Parlophone, Canada, C2 46439]\Help! (Canada).wav

Peak level 99.4 %
Extraction speed 7.9 X
Range quality 100.0 %
Test CRC 7A3B8154
Copy CRC 7A3B8154
Copy OK

No errors occurred

AccurateRip summary

Track 1 accurately ripped (confidence 7) [6BD4844D] (AR v2)
Track 2 accurately ripped (confidence 7) [9150550F] (AR v2)
Track 3 accurately ripped (confidence 6) [276187A8] (AR v2)
Track 4 accurately ripped (confidence 7) [D0803FA0] (AR v2)
Track 5 accurately ripped (confidence 7) [C3142B7B] (AR v2)
Track 6 accurately ripped (confidence 7) [4F2792F7] (AR v2)
Track 7 accurately ripped (confidence 7) [71B23564] (AR v2)
Track 8 accurately ripped (confidence 7) [8D1756A9] (AR v2)
Track 9 accurately ripped (confidence 7) [6E8324EC] (AR v2)
Track 10 accurately ripped (confidence 7) [771BE2A6] (AR v2)
Track 11 accurately ripped (confidence 7) [E7475371] (AR v2)
Track 12 accurately ripped (confidence 7) [64133B60] (AR v2)
Track 13 accurately ripped (confidence 7) [6BEB9199] (AR v2)
Track 14 accurately ripped (confidence 7) [A663D113] (AR v2)

All tracks accurately ripped

End of status report

==== Log checksum A266E45EF1F47734DC5872074AFE008EC0C624A1D1694B09F10D5D2E02556E3E ====

REM GENRE Rock
REM DATE 1965
REM DISCID B108180E
REM COMMENT “ExactAudioCopy v1.0b4”
PERFORMER “The Beatles”
TITLE “Help!”
FILE “Help! (Canada).flac” WAVE
TRACK 01 AUDIO
TITLE “Help!”
PERFORMER “The Beatles”
INDEX 00 00:00:00
INDEX 01 00:00:33
TRACK 02 AUDIO
TITLE “The Night Before”
PERFORMER “The Beatles”
INDEX 00 02:18:53
INDEX 01 02:23:60
TRACK 03 AUDIO
TITLE “You’ve Got To Hide Your Love Away”
PERFORMER “The Beatles”
INDEX 00 04:56:55
INDEX 01 05:01:20
TRACK 04 AUDIO
TITLE “I Need You”
PERFORMER “The Beatles”
INDEX 00 07:09:55
INDEX 01 07:13:35
TRACK 05 AUDIO
TITLE “Another Girl”
PERFORMER “The Beatles”
INDEX 00 09:41:63
INDEX 01 09:45:48
TRACK 06 AUDIO
TITLE “You’re Going To Lose That Girl”
PERFORMER “The Beatles”
INDEX 00 11:50:53
INDEX 01 11:54:73
TRACK 07 AUDIO
TITLE “Ticket To Ride”
PERFORMER “The Beatles”
INDEX 00 14:11:68
INDEX 01 14:16:38
TRACK 08 AUDIO
TITLE “Act Naturally”
PERFORMER “The Beatles”
INDEX 00 17:24:18
INDEX 01 17:28:33
TRACK 09 AUDIO
TITLE “It’s Only Love”
PERFORMER “The Beatles”
INDEX 00 19:57:08
INDEX 01 20:01:65
TRACK 10 AUDIO
TITLE “You Like Me Too Much”
PERFORMER “The Beatles”
INDEX 00 21:56:58
INDEX 01 22:01:25
TRACK 11 AUDIO
TITLE “Tell Me What You See”
PERFORMER “The Beatles”
INDEX 00 24:36:73
INDEX 01 24:41:10
TRACK 12 AUDIO
TITLE “I’ve Just Seen A Face”
PERFORMER “The Beatles”
INDEX 00 27:17:33
INDEX 01 27:20:30
TRACK 13 AUDIO
TITLE “Yesterday”
PERFORMER “The Beatles”
INDEX 00 29:24:33
INDEX 01 29:28:60
TRACK 14 AUDIO
TITLE “Dizzy Miss Lizzie”
PERFORMER “The Beatles”
INDEX 00 31:33:53
INDEX 01 31:37:63


Leave a Reply

Your email address will not be published. Required fields are marked *

This site uses Akismet to reduce spam. Learn how your comment data is processed.