The Beatles – Beatles No. 5 (Remastered Japanese Edition)




Artist: The Beatles
Year: 1965/2014
Genre: Rock
Notes: Discogs
Add. Notes: Remastered Japanese Edition
Cover incl.: Yes
Encoder: FLAC
Bitrate: ~700 kBit/s (44.1 kHz/16 Bit/s)
Log & Cue incl.: Yes
Size: 140,5 MB
Password: “slam” (without ” “)


All Downloads/Hosters are compatible

Download 1
KatFile.com
Turbobit.net
FileFactory.com
Rapidgator.net
Download 2
KatFile.com
Turbobit.net
FileFactory.com
Rapidgator.net

Tracklist:

1 Long Tall Sally 
2 Sie Liebt Dich 
3 Anna (Go To Him) 
4 Matchbox 
5 You Really Got A Hold On Me 
6 She's A Woman 
7 Ask Me Why 
8 I Feel Fine 
9 Komm, Gib Mir Deine Hand 
10 Chains 
11 Slow Down 
12 All I've Got To Do 
13 I Call Your Name 
14 This Boy

EAC-Log, CUE-Sheed & NFO:

Click to open spoiler
Exact Audio Copy V1.0 beta 3 from 29. August 2011

EAC extraction logfile from 16. August 2014, 9:52

The Beatles / Beatles No. 5 (UICY-76432)

Used drive : PLEXTOR DVDR PX-891SA Adapter: 3 ID: 0

Read mode : Secure
Utilize accurate stream : Yes
Defeat audio cache : Yes
Make use of C2 pointers : No

Read offset correction : 6
Overread into Lead-In and Lead-Out : No
Fill up missing offset samples with silence : Yes
Delete leading and trailing silent blocks : No
Null samples used in CRC calculations : Yes
Used interface : Native Win32 interface for Win NT & 2000

Used output format : User Defined Encoder
Selected bitrate : 1024 kBit/s
Quality : High
Add ID3 tag : No
Command line compressor : C:\Program Files\Exact Audio Copy\Flac\flac.exe
Additional command line options : -V -8 -T “Genre=%genre%” -T “Artist=%artist%” -T “Title=%title%” -T “Album=%albumtitle%” -T “Date=%year%” -T “Tracknumber=%tracknr%” -T “Comment=%comment%” %source%

TOC of the extracted CD

Track | Start | Length | Start sector | End sector
———————————————————
1 | 0:00.00 | 2:03.46 | 0 | 9270
2 | 2:03.46 | 2:19.33 | 9271 | 19728
3 | 4:23.04 | 3:00.34 | 19729 | 33262
4 | 7:23.38 | 1:58.49 | 33263 | 42161
5 | 9:22.12 | 3:04.30 | 42162 | 55991
6 | 12:26.42 | 3:03.63 | 55992 | 69779
7 | 15:30.30 | 2:29.56 | 69780 | 81010
8 | 18:00.11 | 2:23.06 | 81011 | 91741
9 | 20:23.17 | 2:25.56 | 91742 | 102672
10 | 22:48.73 | 2:28.55 | 102673 | 113827
11 | 25:17.53 | 2:57.15 | 113828 | 127117
12 | 28:14.68 | 2:06.04 | 127118 | 136571
13 | 30:20.72 | 2:11.15 | 136572 | 146411
14 | 32:32.12 | 2:18.33 | 146412 | 156794

Range status and errors

Selected range

Filename H:\dafnaplus\The Japan Box\4. Beatles No. 5\The Beatles – Beatles No. 5 (UICY-76432).wav

Peak level 99.8 %
Extraction speed 7.7 X
Range quality 99.9 %
Test CRC 6C9C3393
Copy CRC 6C9C3393
Copy OK

No errors occurred

AccurateRip summary

Track 1 accurately ripped (confidence 2) [7FD69338] (AR v2)
Track 2 accurately ripped (confidence 2) [7FB0B0EE] (AR v2)
Track 3 accurately ripped (confidence 2) [D0161AF5] (AR v2)
Track 4 accurately ripped (confidence 2) [3C9F7635] (AR v2)
Track 5 accurately ripped (confidence 2) [CC77B7B8] (AR v2)
Track 6 accurately ripped (confidence 2) [D4AD6885] (AR v2)
Track 7 accurately ripped (confidence 2) [79A16077] (AR v2)
Track 8 accurately ripped (confidence 2) [CD326DDE] (AR v2)
Track 9 accurately ripped (confidence 2) [6DDC5778] (AR v2)
Track 10 accurately ripped (confidence 2) [605F06CF] (AR v2)
Track 11 accurately ripped (confidence 2) [C655ADD2] (AR v2)
Track 12 accurately ripped (confidence 2) [E36DFCC7] (AR v2)
Track 13 accurately ripped (confidence 2) [433C4142] (AR v2)
Track 14 accurately ripped (confidence 2) [0C0BE62E] (AR v2)

All tracks accurately ripped

End of status report

==== Log checksum 489139C97895C1A074665DAB3589834DB06E4DCACFAA8F164EE4A9EA8CF8EB69 ====

REM GENRE Rock
REM DATE 2014
REM DISCID BA082A0E
REM COMMENT “ExactAudioCopy v1.0b3”
PERFORMER “The Beatles”
TITLE “Beatles No. 5 (UICY-76432)”
FILE “The Beatles – Beatles No. 5 (UICY-76432).flac” WAVE
TRACK 01 AUDIO
TITLE “Long Tall Sally ”
PERFORMER “The Beatles”
INDEX 01 00:00:00
TRACK 02 AUDIO
TITLE “Sie Liebt Dich ”
PERFORMER “The Beatles”
INDEX 01 02:03:46
TRACK 03 AUDIO
TITLE “Anna (Go To Him) ”
PERFORMER “The Beatles”
INDEX 01 04:23:04
TRACK 04 AUDIO
TITLE “Matchbox ”
PERFORMER “The Beatles”
INDEX 01 07:23:38
TRACK 05 AUDIO
TITLE “You Really Got A Hold On Me ”
PERFORMER “The Beatles”
INDEX 01 09:22:12
TRACK 06 AUDIO
TITLE “She’s A Woman ”
PERFORMER “The Beatles”
INDEX 01 12:26:42
TRACK 07 AUDIO
TITLE “Ask Me Why ”
PERFORMER “The Beatles”
INDEX 01 15:30:30
TRACK 08 AUDIO
TITLE “I Feel Fine ”
PERFORMER “The Beatles”
INDEX 01 18:00:11
TRACK 09 AUDIO
TITLE “Komm, Gib Mir Deine Hand ”
PERFORMER “The Beatles”
INDEX 01 20:23:17
TRACK 10 AUDIO
TITLE “Chains ”
PERFORMER “The Beatles”
INDEX 01 22:48:73
TRACK 11 AUDIO
TITLE “Slow Down ”
PERFORMER “The Beatles”
INDEX 01 25:17:53
TRACK 12 AUDIO
TITLE “All I’ve Got To Do ”
PERFORMER “The Beatles”
INDEX 01 28:14:68
TRACK 13 AUDIO
TITLE “I Call Your Name ”
PERFORMER “The Beatles”
INDEX 01 30:20:72
TRACK 14 AUDIO
TITLE “This Boy ”
PERFORMER “The Beatles”
INDEX 01 32:32:12


Leave a Reply

Your email address will not be published. Required fields are marked *

Enter the text from the image below
 

This site uses Akismet to reduce spam. Learn how your comment data is processed.