The Beatles – Beatles For Sale (Remastered Japanese Edition)




Artist: The Beatles
Year: 1964/1993
Genre: Rock
Notes: Discogs
Add. Notes: Remastered Japanese Edition
Cover incl.: Yes
Encoder: FLAC
Bitrate: ~700 kBit/s (44.1 kHz/16 Bit/s)
Log & Cue incl.: Yes
Size: 204 MB
Password: “slam” (without ” “)


All Downloads/Hosters are compatible

Download 1
KatFile.com
Rapidgator.net
Turbobit.net
FileFactory.com
Download 2
KatFile.com
Rapidgator.net
Turbobit.net
FileFactory.com

Tracklist:

1 - No Reply - 2:14
2 - I'm A Loser - 2:30
3 - Baby's In Black - 2:04
4 - Rock And Roll Music - 2:30
5 - I'll Follow The Sun - 1:47
6 - Mr. Moonlight - 2:33
7 - Medley - 2:31
8 - Eight Days A Week - 2:42
9 - Words Of Love - 2:12
10 - Honey Don't - 2:55
11 - Every Little Thing - 2:01
12 - I Don't Want To Spoil The 
Party - 2:32
13 - What You're Doing - 2:31
14 - Everybody's Trying To Be My 
Baby - 2:23

EAC-Log, CUE-Sheed & NFO:

Click to open spoiler
Exact Audio Copy V1.0 beta 3 from 29. August 2011

EAC extraction logfile from 13. January 2014, 19:42

The Beatles / Beatles For Sale

Used drive : SONY BD RW BDX-S600U Adapter: 2 ID: 1

Read mode : Secure
Utilize accurate stream : Yes
Defeat audio cache : Yes
Make use of C2 pointers : No

Read offset correction : 48
Overread into Lead-In and Lead-Out : No
Fill up missing offset samples with silence : Yes
Delete leading and trailing silent blocks : No
Null samples used in CRC calculations : Yes
Used interface : Native Win32 interface for Win NT & 2000

Used output format : User Defined Encoder
Selected bitrate : 128 kBit/s
Quality : High
Add ID3 tag : No
Command line compressor : C:\Program Files (x86)\Exact Audio Copy\Flac\flac.exe
Additional command line options : -V -8 -T “Date=%year%” -T “Genre=%genre%” %source%

TOC of the extracted CD

Track | Start | Length | Start sector | End sector
———————————————————
1 | 0:00.32 | 2:17.63 | 32 | 10369
2 | 2:18.20 | 2:33.37 | 10370 | 21881
3 | 4:51.57 | 2:07.43 | 21882 | 31449
4 | 6:59.25 | 2:33.55 | 31450 | 42979
5 | 9:33.05 | 1:51.02 | 42980 | 51306
6 | 11:24.07 | 2:37.15 | 51307 | 63096
7 | 14:01.22 | 2:33.35 | 63097 | 74606
8 | 16:34.57 | 2:45.33 | 74607 | 87014
9 | 19:20.15 | 2:14.55 | 87015 | 97119
10 | 21:34.70 | 2:59.45 | 97120 | 110589
11 | 24:34.40 | 2:04.40 | 110590 | 119929
12 | 26:39.05 | 2:36.12 | 119930 | 131641
13 | 29:15.17 | 2:34.53 | 131642 | 143244
14 | 31:49.70 | 2:23.65 | 143245 | 154034

Range status and errors

Selected range

Filename D:\1964. The Beatles – Beatles For Sale\1964. The Beatles – Beatles For Sale (Toshiba-EMI, CP32-5324,Japan)\The Beatles – Beatles For Sale.wav

Peak level 100.0 %
Extraction speed 5.9 X
Range quality 100.0 %
Test CRC EF2E125E
Copy CRC EF2E125E
Copy OK

No errors occurred

AccurateRip summary

Track 1 accurately ripped (confidence 6) [CD882362] (AR v2)
Track 2 accurately ripped (confidence 6) [0AB9FB2D] (AR v2)
Track 3 accurately ripped (confidence 6) [1D629B8E] (AR v2)
Track 4 accurately ripped (confidence 6) [CD960D5F] (AR v2)
Track 5 accurately ripped (confidence 6) [FF7DB1D1] (AR v2)
Track 6 accurately ripped (confidence 6) [2108C6B5] (AR v2)
Track 7 accurately ripped (confidence 6) [F316192E] (AR v2)
Track 8 accurately ripped (confidence 6) [D038EA5A] (AR v2)
Track 9 accurately ripped (confidence 6) [BAFF0316] (AR v2)
Track 10 accurately ripped (confidence 6) [15F060E0] (AR v2)
Track 11 accurately ripped (confidence 6) [C9DEF83E] (AR v2)
Track 12 accurately ripped (confidence 6) [C3FE8E5B] (AR v2)
Track 13 accurately ripped (confidence 6) [2653C586] (AR v2)
Track 14 accurately ripped (confidence 6) [B8DFC4B3] (AR v2)

All tracks accurately ripped

End of status report

—- CUETools DB Plugin V2.1.3

[CTDB TOCID: swA2iLRl5lq6CuxSoysMrGStMLk-] found, Submit result: discs with pregaps not supported in this protocol version
[51da82f7] (7/7) Differs in 0 samples @
You can use CUETools to repair this rip.

==== Log checksum 2F5200FA3423F5338BFC465A22D09DC6D16F9F8DA5CC948F3FEA449ADBB595CB ====

REM GENRE Rock
REM DATE 1964
REM DISCID BE08050E
REM COMMENT “ExactAudioCopy v1.0b3”
CATALOG 0000000000000
PERFORMER “The Beatles”
TITLE “Beatles For Sale”
FILE “The Beatles – Beatles For Sale.flac” WAVE
TRACK 01 AUDIO
TITLE “No Reply”
PERFORMER “The Beatles”
ISRC 000000000000
INDEX 00 00:00:00
INDEX 01 00:00:32
TRACK 02 AUDIO
TITLE “I’m A Loser”
PERFORMER “The Beatles”
ISRC 000000000000
INDEX 00 02:14:72
INDEX 01 02:18:20
TRACK 03 AUDIO
TITLE “Baby’s In Black”
PERFORMER “The Beatles”
ISRC 000000000000
INDEX 00 04:48:20
INDEX 01 04:51:57
TRACK 04 AUDIO
TITLE “Rock And Roll Music”
PERFORMER “The Beatles”
ISRC 000000000000
INDEX 00 06:56:07
INDEX 01 06:59:25
TRACK 05 AUDIO
TITLE “I’ll Follow The Sun”
PERFORMER “The Beatles”
ISRC 000000000000
INDEX 00 09:29:60
INDEX 01 09:33:05
TRACK 06 AUDIO
TITLE “Mr. Moonlight”
PERFORMER “The Beatles”
ISRC 000000000000
INDEX 00 11:20:35
INDEX 01 11:24:07
TRACK 07 AUDIO
TITLE “Medley: A.Kansas City B. Hey, Hey, Hey, Hey”
PERFORMER “The Beatles”
ISRC 000000000000
INDEX 00 13:57:52
INDEX 01 14:01:22
TRACK 08 AUDIO
TITLE “Eight Days A Week”
PERFORMER “The Beatles”
ISRC 000000000000
INDEX 00 16:32:32
INDEX 01 16:34:57
TRACK 09 AUDIO
TITLE “Words Of Love”
PERFORMER “The Beatles”
ISRC 000000000000
INDEX 00 19:16:67
INDEX 01 19:20:15
TRACK 10 AUDIO
TITLE “Honey Don’t”
PERFORMER “The Beatles”
ISRC 000000000000
INDEX 00 21:32:27
INDEX 01 21:34:70
TRACK 11 AUDIO
TITLE “Every Little Thing”
PERFORMER “The Beatles”
ISRC 000000000000
INDEX 00 24:30:57
INDEX 01 24:34:40
TRACK 12 AUDIO
TITLE “I Don’t Want To Spoil The Party”
PERFORMER “The Beatles”
ISRC 000000000000
INDEX 00 26:35:72
INDEX 01 26:39:05
TRACK 13 AUDIO
TITLE “What You’re Doing”
PERFORMER “The Beatles”
ISRC 000000000000
INDEX 00 29:11:45
INDEX 01 29:15:17
TRACK 14 AUDIO
TITLE “Everybody’s Trying To Be My Baby”
PERFORMER “The Beatles”
ISRC 000000000000
INDEX 00 31:46:57
INDEX 01 31:49:70


Leave a Reply

Your email address will not be published. Required fields are marked *

Enter the text from the image below
 

This site uses Akismet to reduce spam. Learn how your comment data is processed.