The Beatles – Beatles For Sale (Reissue)




[Total: 0    Average: 0/5]

Artist: The Beatles
Year: 1964/1992
Genre: Rock
Notes: Discogs
Add. Notes: Reissue
Cover incl.: Yes
Encoder: FLAC
Bitrate: ~700 kBit/s (44.1 kHz/16 Bit/s)
Log & Cue incl.: Yes
Size: 202 MB
Password: “slam” (without ” “)


All Downloads/Hosters are compatible

Download 1
Share-online.biz
KatFile.com
Rapidgator.net
Mexa.sh
Download 2
Share-online.biz
KatFile.com
Rapidgator.net
Mexa.sh

Tracklist:

1. No Reply
2. I'm A Loser
3. Baby's In Black
4. Rock And Roll Music
5. I'll Follow The Sun
6. Mr. Moonlight
7. Medley a. Kansas City b. Hey, 
Hey, Hey, Hey
8. Eight Days A Week
9. Words Of Love
10. Honey Don't
11. Every Little Thing
12. I Don't Want To Spoil The Party
13. What You're Doing
14. Everybody's Trying To Be My 
Baby

Label: Apple Records ‎– C2 46438, 
Parlophone ‎– C2 0777 
7 46438 2 5 

EAC-Log, CUE-Sheed & NFO:

Click to open spoiler
Exact Audio Copy V1.3 from 2. September 2016

EAC extraction logfile from 11. December 2016, 9:44

The Beatles / Beatles For Sale

Used drive : PLEXTOR DVDR PX-891SA Adapter: 1 ID: 0

Read mode : Secure
Utilize accurate stream : Yes
Defeat audio cache : Yes
Make use of C2 pointers : No

Read offset correction : 6
Overread into Lead-In and Lead-Out : No
Fill up missing offset samples with silence : Yes
Delete leading and trailing silent blocks : No
Null samples used in CRC calculations : Yes
Used interface : Native Win32 interface for Win NT & 2000

Used output format : User Defined Encoder
Selected bitrate : 128 kBit/s
Quality : High
Add ID3 tag : No
Command line compressor : C:\Program Files (x86)\Exact Audio Copy\Flac\flac.exe
Additional command line options : -V -8 -T “Genre=%genre%” -T “Artist=%artist%” -T “Title=%title%” -T “Album=%albumtitle%” -T “Date=%year%” -T “Tracknumber=%tracknr%” -T “Comment=%comment%” %source%

TOC of the extracted CD

Track | Start | Length | Start sector | End sector
———————————————————
1 | 0:00.32 | 2:17.18 | 32 | 10324
2 | 2:17.50 | 2:33.35 | 10325 | 21834
3 | 4:51.10 | 2:07.45 | 21835 | 31404
4 | 6:58.55 | 2:33.55 | 31405 | 42934
5 | 9:32.35 | 1:51.00 | 42935 | 51259
6 | 11:23.35 | 2:37.17 | 51260 | 63051
7 | 14:00.52 | 2:32.08 | 63052 | 74459
8 | 16:32.60 | 2:45.32 | 74460 | 86866
9 | 19:18.17 | 2:14.55 | 86867 | 96971
10 | 21:32.72 | 2:59.43 | 96972 | 110439
11 | 24:32.40 | 2:04.42 | 110440 | 119781
12 | 26:37.07 | 2:36.13 | 119782 | 131494
13 | 29:13.20 | 2:34.52 | 131495 | 143096
14 | 31:47.72 | 2:23.35 | 143097 | 153856

Range status and errors

Selected range

Filename H:\dafnaplus\Beatles For Sale\The Beatles – Beatles For Sale.wav

Peak level 100.0 %
Extraction speed 6.5 X
Range quality 99.9 %
Test CRC A7D127E1
Copy CRC A7D127E1
Copy OK

No errors occurred

AccurateRip summary

Track 1 accurately ripped (confidence 2) [D367C539] (AR v2)
Track 2 accurately ripped (confidence 2) [6A74312D] (AR v2)
Track 3 accurately ripped (confidence 2) [52C7038F] (AR v2)
Track 4 accurately ripped (confidence 2) [F515858F] (AR v2)
Track 5 accurately ripped (confidence 2) [F1530666] (AR v2)
Track 6 accurately ripped (confidence 2) [0D8A4F10] (AR v2)
Track 7 accurately ripped (confidence 2) [98E7FFF6] (AR v2)
Track 8 accurately ripped (confidence 2) [3D89B6EA] (AR v2)
Track 9 accurately ripped (confidence 2) [E24BE2B8] (AR v2)
Track 10 accurately ripped (confidence 2) [CA544D37] (AR v2)
Track 11 accurately ripped (confidence 2) [26239039] (AR v2)
Track 12 accurately ripped (confidence 2) [1E262F6F] (AR v2)
Track 13 accurately ripped (confidence 2) [5EE7A7AC] (AR v2)
Track 14 accurately ripped (confidence 2) [57AC3E72] (AR v2)

All tracks accurately ripped

End of status report

—- CUETools DB Plugin V2.1.6

[CTDB TOCID: q5nh31jZY6AX7Z79p3WIfBlUC2M-] found
Submit result: already submitted
Track | CTDB Status
1 | (3/3) Accurately ripped
2 | (3/3) Accurately ripped
3 | (3/3) Accurately ripped
4 | (3/3) Accurately ripped
5 | (3/3) Accurately ripped
6 | (3/3) Accurately ripped
7 | (3/3) Accurately ripped
8 | (3/3) Accurately ripped
9 | (3/3) Accurately ripped
10 | (3/3) Accurately ripped
11 | (3/3) Accurately ripped
12 | (3/3) Accurately ripped
13 | (3/3) Accurately ripped
14 | (3/3) Accurately ripped

==== Log checksum 60CC17DCDED2E1BABA34DEFD78DA70F47FDAE3D96B9CE733B3EC9DB2709B55BC ====

REM GENRE Rock
REM DATE 1989
REM DISCID CF08030E
REM COMMENT “ExactAudioCopy v1.3”
PERFORMER “The Beatles”
TITLE “Beatles For Sale”
REM COMPOSER “”
FILE “The Beatles – Beatles For Sale.flac” WAVE
TRACK 01 AUDIO
TITLE “No Reply”
PERFORMER “The Beatles”
REM COMPOSER “”
INDEX 00 00:00:00
INDEX 01 00:00:32
TRACK 02 AUDIO
TITLE “I’m A Loser”
PERFORMER “The Beatles”
REM COMPOSER “”
INDEX 00 02:13:67
INDEX 01 02:17:50
TRACK 03 AUDIO
TITLE “Baby’s In Black”
PERFORMER “The Beatles”
REM COMPOSER “”
INDEX 00 04:47:17
INDEX 01 04:51:10
TRACK 04 AUDIO
TITLE “Rock And Roll Music”
PERFORMER “The Beatles”
REM COMPOSER “”
INDEX 00 06:55:06
INDEX 01 06:58:55
TRACK 05 AUDIO
TITLE “I’ll Follow The Sun”
PERFORMER “The Beatles”
REM COMPOSER “”
INDEX 00 09:28:42
INDEX 01 09:32:35
TRACK 06 AUDIO
TITLE “Mr. Moonlight”
PERFORMER “The Beatles”
REM COMPOSER “”
INDEX 00 11:19:30
INDEX 01 11:23:35
TRACK 07 AUDIO
TITLE “Medley: a. Kansas City b. Hey, Hey, Hey, Hey”
PERFORMER “The Beatles”
REM COMPOSER “”
INDEX 00 13:56:25
INDEX 01 14:00:52
TRACK 08 AUDIO
TITLE “Eight Days A Week”
PERFORMER “The Beatles”
REM COMPOSER “”
INDEX 00 16:30:25
INDEX 01 16:32:60
TRACK 09 AUDIO
TITLE “Words Of Love”
PERFORMER “The Beatles”
REM COMPOSER “”
INDEX 00 19:14:37
INDEX 01 19:18:17
TRACK 10 AUDIO
TITLE “Honey Don’t”
PERFORMER “The Beatles”
REM COMPOSER “”
INDEX 00 21:29:00
INDEX 01 21:32:72
TRACK 11 AUDIO
TITLE “Every Little Thing”
PERFORMER “The Beatles”
REM COMPOSER “”
INDEX 00 24:28:25
INDEX 01 24:32:40
TRACK 12 AUDIO
TITLE “I Don’t Want To Spoil The Party”
PERFORMER “The Beatles”
REM COMPOSER “”
INDEX 00 26:33:42
INDEX 01 26:37:07
TRACK 13 AUDIO
TITLE “What You’re Doing”
PERFORMER “The Beatles”
REM COMPOSER “”
INDEX 00 29:09:15
INDEX 01 29:13:20
TRACK 14 AUDIO
TITLE “Everybody’s Trying To Be My Baby”
PERFORMER “The Beatles”
REM COMPOSER “”
INDEX 00 31:43:40
INDEX 01 31:47:72


Spread the Download

Leave a Reply

Your email address will not be published. Required fields are marked *

Enter the text from the image below
 

This site uses Akismet to reduce spam. Learn how your comment data is processed.