The Beatles – Anthology 1




Artist: The Beatles
Year: 1995
Genre: Rock
Notes: Discogs
Add. Notes:
Cover incl.: Yes
Encoder: FLAC
Bitrate: ~700 kBit/s (44.1 kHz/16 Bit/s)
Log & Cue incl.: Yes
Size: 652,03 MB
Password: “slam” (without ” “)


All Downloads/Hosters are compatible

Download 1
Turbobit.net
KatFile.com
Rapidgator.net
Download 2
Turbobit.net
KatFile.com
Rapidgator.net

Tracklist:

CD 1:
01. Free As A Bird  4:25
02. Speech: John Lennon  0:12
03. That'll Be The Day  2:08
04. In Spite Of All The Danger  2:45
05. Speech: Paul McCartney  0:18
06. Hallelujah, I Love Her So  1:13
07. You'll Be Mine  1:39
08. Cayenne  1:14
09. Speech: Paul  0:07
10. My Bonnie  2:42
11. Ain't She Sweet  2:13
12. Cry For A Shadow  2:22
13. Speech: John  0:10
14. Speech: Brian Epstein  0:18
15. Searchin'  3:00
16. Three Cool Cats  2:25
17. The Sheik Of Araby  1:43
18. Like Dreamers Do  2:36
19. Hello Little Girl  1:40
20. Speech: Brian Epstein  0:32
21. Besame Mucho  2:37
22. Love Me Do  2:32
23. How Do You Do It  1:57
24. Please Please Me  1:59
25. One After 909 (False Starts)  2:23
26. One After 909  2:56
27. Lend Me Your Comb  1:50
28. I'll Get You  2:08
29. Speech: John  0:12
30. I Saw Her Standing There  2:49
31. From Me To You  2:05
32. Money (That's What I Want)  2:52
33. You Really Got A Hold On Me  2:58
34. Roll Over Beethoven  2:22

CD 2:
01. She Loves You  2:50
02. Till There Was You  2:54
03. Twist And Shout  3:05
04. This Boy  2:22
05. I Want To Hold Your Hand  2:37
06. Speech  Eric Morecambe and Ernie Wise  2:06
07. Moonlight Bay  0:50
08. Can't Buy Me Love  2:10
09. All My Loving  2:19
10. You Can't Do That  2:42
11. And I Love Her  1:52
12. A Hard Day's Night  2:44
13. I Wanna Be Your Man  1:48
14. Long Tall Sally  1:45
15. Boys  1:50
16. Shout  1:31
17. I'll Be Back  1:13
18. I'll Be Back  1:58
19. You Know What To Do  1:59
20. No Reply [demo]  1:46
21. Mr Moonlight  2:47
22. Leave My Kitten Alone  2:57
23. No Reply  2:29
24. Eight Days A Week  1:25
25. Eight Days A Week  2:48
26. Hey-Hey-Hey-Hey!  2:44

EAC-Log, CUE-Sheed & NFO:

Click to open spoiler
Exact Audio Copy V1.0 beta 3 from 29. August 2011

EAC extraction logfile from 6. July 2013, 14:58

The Beatles / Anthology 1 (Disc 1)

Used drive : PLEXTOR DVDR PX-891SA Adapter: 1 ID: 0

Read mode : Secure
Utilize accurate stream : Yes
Defeat audio cache : Yes
Make use of C2 pointers : No

Read offset correction : 6
Overread into Lead-In and Lead-Out : No
Fill up missing offset samples with silence : Yes
Delete leading and trailing silent blocks : No
Null samples used in CRC calculations : Yes
Used interface : Native Win32 interface for Win NT & 2000

Used output format : User Defined Encoder
Selected bitrate : 1024 kBit/s
Quality : High
Add ID3 tag : No
Command line compressor : C:\Program Files\Exact Audio Copy\Flac\flac.exe
Additional command line options : -V -8 -T “Genre=%genre%” -T “Artist=%artist%” -T “Title=%title%” -T “Album=%albumtitle%” -T “Date=%year%” -T “Tracknumber=%tracknr%” -T “Comment=%comment%” %source%

TOC of the extracted CD

Track | Start | Length | Start sector | End sector
———————————————————
1 | 0:00.00 | 4:24.50 | 0 | 19849
2 | 4:24.50 | 0:12.37 | 19850 | 20786
3 | 4:37.12 | 2:07.53 | 20787 | 30364
4 | 6:44.65 | 2:44.40 | 30365 | 42704
5 | 9:29.30 | 0:17.72 | 42705 | 44051
6 | 9:47.27 | 1:13.20 | 44052 | 49546
7 | 11:00.47 | 1:38.68 | 49547 | 56964
8 | 12:39.40 | 1:13.72 | 56965 | 62511
9 | 13:53.37 | 0:07.23 | 62512 | 63059
10 | 14:00.60 | 2:42.12 | 63060 | 75221
11 | 16:42.72 | 2:13.30 | 75222 | 85226
12 | 18:56.27 | 2:22.27 | 85227 | 95903
13 | 21:18.54 | 0:10.26 | 95904 | 96679
14 | 21:29.05 | 0:18.35 | 96680 | 98064
15 | 21:47.40 | 2:59.40 | 98065 | 111529
16 | 24:47.05 | 2:25.17 | 111530 | 122421
17 | 27:12.22 | 1:43.13 | 122422 | 130159
18 | 28:55.35 | 2:35.42 | 130160 | 141826
19 | 31:31.02 | 1:40.18 | 141827 | 149344
20 | 33:11.20 | 0:32.10 | 149345 | 151754
21 | 33:43.30 | 2:37.04 | 151755 | 163533
22 | 36:20.34 | 2:31.58 | 163534 | 174916
23 | 38:52.17 | 1:57.13 | 174917 | 183704
24 | 40:49.30 | 1:59.12 | 183705 | 192641
25 | 42:48.42 | 2:23.15 | 192642 | 203381
26 | 45:11.57 | 2:55.50 | 203382 | 216556
27 | 48:07.32 | 1:49.55 | 216557 | 224786
28 | 49:57.12 | 2:08.25 | 224787 | 234411
29 | 52:05.37 | 0:12.10 | 234412 | 235321
30 | 52:17.47 | 2:48.60 | 235322 | 247981
31 | 55:06.32 | 2:05.33 | 247982 | 257389
32 | 57:11.65 | 2:52.15 | 257390 | 270304
33 | 60:04.05 | 2:58.05 | 270305 | 283659
34 | 63:02.10 | 2:21.57 | 283660 | 294291

Range status and errors

Selected range

Filename H:\dafnaplus\Beatles – Anthology 1-3\Anthology 1\Disc 1\The Beatles – Anthology 1 (Disc 1).wav

Peak level 88.5 %
Extraction speed 8.6 X
Range quality 99.9 %
Test CRC F88DF7EB
Copy CRC F88DF7EB
Copy OK

No errors occurred

AccurateRip summary

Track 1 accurately ripped (confidence 12) [27097396] (AR v2)
Track 2 accurately ripped (confidence 14) [675B4B6B] (AR v2)
Track 3 accurately ripped (confidence 14) [6ADE2268] (AR v2)
Track 4 accurately ripped (confidence 14) [E6F13455] (AR v2)
Track 5 accurately ripped (confidence 15) [06B1C87F] (AR v2)
Track 6 accurately ripped (confidence 14) [3D65557E] (AR v2)
Track 7 accurately ripped (confidence 15) [3DDD1D7E] (AR v2)
Track 8 accurately ripped (confidence 14) [C9411A6E] (AR v2)
Track 9 accurately ripped (confidence 14) [F49556E4] (AR v2)
Track 10 accurately ripped (confidence 14) [F895BB87] (AR v2)
Track 11 accurately ripped (confidence 14) [BDDD288E] (AR v2)
Track 12 accurately ripped (confidence 14) [05F7AB5B] (AR v2)
Track 13 accurately ripped (confidence 14) [49A7D21B] (AR v2)
Track 14 accurately ripped (confidence 14) [D51CDAA9] (AR v2)
Track 15 accurately ripped (confidence 14) [C795A9FB] (AR v2)
Track 16 accurately ripped (confidence 14) [A08D8E1C] (AR v2)
Track 17 accurately ripped (confidence 14) [71321904] (AR v2)
Track 18 accurately ripped (confidence 13) [BCC32D57] (AR v2)
Track 19 accurately ripped (confidence 14) [BCCEAD37] (AR v2)
Track 20 accurately ripped (confidence 14) [432B0067] (AR v2)
Track 21 accurately ripped (confidence 14) [970B7621] (AR v2)
Track 22 accurately ripped (confidence 14) [33BA0C48] (AR v2)
Track 23 accurately ripped (confidence 14) [3AAD9305] (AR v2)
Track 24 accurately ripped (confidence 14) [A6B1B2DC] (AR v2)
Track 25 accurately ripped (confidence 14) [EAA2CEC9] (AR v2)
Track 26 accurately ripped (confidence 14) [77D250B9] (AR v2)
Track 27 accurately ripped (confidence 13) [2ABB06A6] (AR v2)
Track 28 accurately ripped (confidence 14) [E1E27DD6] (AR v2)
Track 29 accurately ripped (confidence 14) [99A18618] (AR v2)
Track 30 accurately ripped (confidence 14) [9DCB27C1] (AR v2)
Track 31 accurately ripped (confidence 14) [88A46177] (AR v2)
Track 32 accurately ripped (confidence 14) [4971159B] (AR v2)
Track 33 accurately ripped (confidence 14) [5C5DBF21] (AR v2)
Track 34 accurately ripped (confidence 12) [60CA2D7C] (AR v2)

All tracks accurately ripped

End of status report

==== Log checksum 0C61448009FBA1EB88B0B646A98A5C6081EA59E79B557F58DB263B0C4DF26CE6 ====

Exact Audio Copy V1.0 beta 3 from 29. August 2011

EAC extraction logfile from 6. July 2013, 15:25

The Beatles / Antology 1 (Disc2)

Used drive : PLEXTOR DVDR PX-891SA Adapter: 1 ID: 0

Read mode : Secure
Utilize accurate stream : Yes
Defeat audio cache : Yes
Make use of C2 pointers : No

Read offset correction : 6
Overread into Lead-In and Lead-Out : No
Fill up missing offset samples with silence : Yes
Delete leading and trailing silent blocks : No
Null samples used in CRC calculations : Yes
Used interface : Native Win32 interface for Win NT & 2000

Used output format : User Defined Encoder
Selected bitrate : 1024 kBit/s
Quality : High
Add ID3 tag : No
Command line compressor : C:\Program Files\Exact Audio Copy\Flac\flac.exe
Additional command line options : -V -8 -T “Genre=%genre%” -T “Artist=%artist%” -T “Title=%title%” -T “Album=%albumtitle%” -T “Date=%year%” -T “Tracknumber=%tracknr%” -T “Comment=%comment%” %source%

TOC of the extracted CD

Track | Start | Length | Start sector | End sector
———————————————————
1 | 0:00.00 | 2:50.10 | 0 | 12759
2 | 2:50.10 | 2:54.20 | 12760 | 25829
3 | 5:44.30 | 3:05.32 | 25830 | 39736
4 | 8:49.62 | 2:22.00 | 39737 | 50386
5 | 11:11.62 | 2:36.68 | 50387 | 62154
6 | 13:48.55 | 2:05.40 | 62155 | 71569
7 | 15:54.20 | 0:49.65 | 71570 | 75309
8 | 16:44.10 | 2:10.07 | 75310 | 85066
9 | 18:54.17 | 2:19.23 | 85067 | 95514
10 | 21:13.40 | 2:42.05 | 95515 | 107669
11 | 23:55.45 | 1:52.05 | 107670 | 116074
12 | 25:47.50 | 2:43.67 | 116075 | 128366
13 | 28:31.42 | 1:47.53 | 128367 | 136444
14 | 30:19.20 | 1:45.17 | 136445 | 144336
15 | 32:04.37 | 1:49.45 | 144337 | 152556
16 | 33:54.07 | 1:31.18 | 152557 | 159399
17 | 35:25.25 | 1:12.60 | 159400 | 164859
18 | 36:38.10 | 1:57.65 | 164860 | 173699
19 | 38:36.00 | 1:58.52 | 173700 | 182601
20 | 40:34.52 | 1:46.23 | 182602 | 190574
21 | 42:21.00 | 2:47.37 | 190575 | 203136
22 | 45:08.37 | 2:56.40 | 203137 | 216376
23 | 48:05.02 | 2:29.00 | 216377 | 227551
24 | 50:34.02 | 1:25.08 | 227552 | 233934
25 | 51:59.10 | 2:47.47 | 233935 | 246506
26 | 54:46.57 | 2:44.30 | 246507 | 258836

Range status and errors

Selected range

Filename H:\dafnaplus\Beatles – Anthology 1-3\Anthology 1\Disc 2\The Beatles – Antology 1 (Disc2).wav

Peak level 100.0 %
Extraction speed 8.4 X
Range quality 99.9 %
Test CRC C8880AC9
Copy CRC C8880AC9
Copy OK

No errors occurred

AccurateRip summary

Track 1 accurately ripped (confidence 32) [EDFAE343] (AR v2)
Track 2 accurately ripped (confidence 32) [3B258D83] (AR v2)
Track 3 accurately ripped (confidence 32) [3B5BC8B2] (AR v2)
Track 4 accurately ripped (confidence 32) [CB3303D4] (AR v2)
Track 5 accurately ripped (confidence 31) [EAA562A2] (AR v2)
Track 6 accurately ripped (confidence 31) [6AF32B64] (AR v2)
Track 7 accurately ripped (confidence 31) [F8070293] (AR v2)
Track 8 accurately ripped (confidence 31) [4CF628EF] (AR v2)
Track 9 accurately ripped (confidence 31) [97DE035D] (AR v2)
Track 10 accurately ripped (confidence 31) [06D84449] (AR v2)
Track 11 accurately ripped (confidence 31) [D9DFC14B] (AR v2)
Track 12 accurately ripped (confidence 31) [179229C0] (AR v2)
Track 13 accurately ripped (confidence 32) [9187F1E7] (AR v2)
Track 14 accurately ripped (confidence 31) [21AB7066] (AR v2)
Track 15 accurately ripped (confidence 31) [931F59AF] (AR v2)
Track 16 accurately ripped (confidence 31) [6A2E7C69] (AR v2)
Track 17 accurately ripped (confidence 32) [E9C5AF09] (AR v2)
Track 18 accurately ripped (confidence 31) [FAA35C50] (AR v2)
Track 19 accurately ripped (confidence 31) [A22E9A18] (AR v2)
Track 20 accurately ripped (confidence 31) [82689A67] (AR v2)
Track 21 accurately ripped (confidence 31) [2D3FB7DF] (AR v2)
Track 22 accurately ripped (confidence 31) [FCC58076] (AR v2)
Track 23 accurately ripped (confidence 31) [CCF798F4] (AR v2)
Track 24 accurately ripped (confidence 31) [B1CDF9ED] (AR v2)
Track 25 accurately ripped (confidence 30) [173AFAFD] (AR v2)
Track 26 accurately ripped (confidence 31) [94DCC910] (AR v2)

All tracks accurately ripped

End of status report

==== Log checksum 27F42D6C9AC88653D8D86E286008E32451E9693C716FE27E2B8DFA7F2DBC80BB ====

REM GENRE Rock
REM DATE 1995
REM DISCID 010F5322
REM COMMENT “ExactAudioCopy v1.0b3”
CATALOG 0724383444625
PERFORMER “The Beatles”
TITLE “Anthology 1 (Disc 1)”
FILE “The Beatles – Anthology 1 (Disc 1).flac” WAVE
TRACK 01 AUDIO
TITLE “Free As A Bird”
PERFORMER “The Beatles”
INDEX 01 00:00:00
TRACK 02 AUDIO
TITLE “Speech: John Lennon”
PERFORMER “The Beatles”
INDEX 01 04:24:50
TRACK 03 AUDIO
TITLE “That’ll Be The Day”
PERFORMER “The Beatles”
INDEX 01 04:37:12
TRACK 04 AUDIO
TITLE “In Spite Of All The Danger”
PERFORMER “The Beatles”
INDEX 01 06:44:65
TRACK 05 AUDIO
TITLE “Speech: Paul McCartney”
PERFORMER “The Beatles”
INDEX 01 09:29:30
TRACK 06 AUDIO
TITLE “Hallelujah, I Love Her So”
PERFORMER “The Beatles”
INDEX 01 09:47:27
TRACK 07 AUDIO
TITLE “You’ll Be Mine”
PERFORMER “The Beatles”
INDEX 00 11:00:12
INDEX 01 11:00:47
TRACK 08 AUDIO
TITLE “Cayenne”
PERFORMER “The Beatles”
INDEX 00 12:39:24
INDEX 01 12:39:40
TRACK 09 AUDIO
TITLE “Speech: Paul”
PERFORMER “The Beatles”
INDEX 01 13:53:37
TRACK 10 AUDIO
TITLE “My Bonnie”
PERFORMER “The Beatles”
INDEX 01 14:00:60
TRACK 11 AUDIO
TITLE “Ain’t She Sweet”
PERFORMER “The Beatles”
INDEX 00 16:42:07
INDEX 01 16:42:72
TRACK 12 AUDIO
TITLE “Cry For A Shadow”
PERFORMER “The Beatles”
INDEX 00 18:55:37
INDEX 01 18:56:27
TRACK 13 AUDIO
TITLE “Speech: John”
PERFORMER “The Beatles”
INDEX 01 21:18:54
TRACK 14 AUDIO
TITLE “Speech: Brian Epstein”
PERFORMER “The Beatles”
INDEX 01 21:29:05
TRACK 15 AUDIO
TITLE “Searchin'”
PERFORMER “The Beatles”
INDEX 01 21:47:40
TRACK 16 AUDIO
TITLE “Three Cool Cats”
PERFORMER “The Beatles”
INDEX 00 24:46:32
INDEX 01 24:47:05
TRACK 17 AUDIO
TITLE “The Sheik Of Araby”
PERFORMER “The Beatles”
INDEX 00 27:11:37
INDEX 01 27:12:22
TRACK 18 AUDIO
TITLE “Like Dreamers Do”
PERFORMER “The Beatles”
INDEX 00 28:53:67
INDEX 01 28:55:35
TRACK 19 AUDIO
TITLE “Hello Little Girl”
PERFORMER “The Beatles”
INDEX 00 31:30:57
INDEX 01 31:31:02
TRACK 20 AUDIO
TITLE “Speech: Brian Epstein”
PERFORMER “The Beatles”
INDEX 00 33:10:12
INDEX 01 33:11:20
TRACK 21 AUDIO
TITLE “Besame Mucho”
PERFORMER “The Beatles”
INDEX 00 33:43:02
INDEX 01 33:43:30
TRACK 22 AUDIO
TITLE “Love Me Do”
PERFORMER “The Beatles”
INDEX 00 36:19:00
INDEX 01 36:20:34
TRACK 23 AUDIO
TITLE “How Do You Do It”
PERFORMER “The Beatles”
INDEX 00 38:51:67
INDEX 01 38:52:17
TRACK 24 AUDIO
TITLE “Please Please Me”
PERFORMER “The Beatles”
INDEX 00 40:49:17
INDEX 01 40:49:30
TRACK 25 AUDIO
TITLE “One After 909 (False Starts)”
PERFORMER “The Beatles”
INDEX 00 42:47:57
INDEX 01 42:48:42
TRACK 26 AUDIO
TITLE “One After 909”
PERFORMER “The Beatles”
INDEX 00 45:11:17
INDEX 01 45:11:57
TRACK 27 AUDIO
TITLE “Lend Me Your Comb”
PERFORMER “The Beatles”
INDEX 00 48:06:15
INDEX 01 48:07:32
TRACK 28 AUDIO
TITLE “I’ll Get You”
PERFORMER “The Beatles”
INDEX 00 49:56:60
INDEX 01 49:57:12
TRACK 29 AUDIO
TITLE “Speech: John”
PERFORMER “The Beatles”
INDEX 01 52:05:37
TRACK 30 AUDIO
TITLE “I Saw Her Standing There”
PERFORMER “The Beatles”
INDEX 01 52:17:47
TRACK 31 AUDIO
TITLE “From Me To You”
PERFORMER “The Beatles”
INDEX 01 55:06:32
TRACK 32 AUDIO
TITLE “Money (That’s What I Want)”
PERFORMER “The Beatles”
INDEX 01 57:11:65
TRACK 33 AUDIO
TITLE “You Really Got A Hold On Me”
PERFORMER “The Beatles”
INDEX 01 60:04:05
TRACK 34 AUDIO
TITLE “Roll Over Beethoven”
PERFORMER “The Beatles”
INDEX 01 63:02:10

REM GENRE Rock
REM DATE 1995
REM DISCID 500D7B1A
REM COMMENT “ExactAudioCopy v1.0b3”
CATALOG 0724383444724
PERFORMER “The Beatles”
TITLE “Antology 1 (Disc2)”
FILE “The Beatles – Antology 1 (Disc2).flac” WAVE
TRACK 01 AUDIO
TITLE “She Loves You”
PERFORMER “The Beatles”
INDEX 01 00:00:00
TRACK 02 AUDIO
TITLE “Till There Was You”
PERFORMER “The Beatles”
INDEX 01 02:50:10
TRACK 03 AUDIO
TITLE “Twist And Shout”
PERFORMER “The Beatles”
INDEX 01 05:44:30
TRACK 04 AUDIO
TITLE “This Boy”
PERFORMER “The Beatles”
INDEX 01 08:49:62
TRACK 05 AUDIO
TITLE “I Want To Hold Your Hand”
PERFORMER “The Beatles”
INDEX 01 11:11:62
TRACK 06 AUDIO
TITLE “Speech Eric Morecambe and Ernie Wise”
PERFORMER “The Beatles”
INDEX 01 13:48:55
TRACK 07 AUDIO
TITLE “Moonlight Bay”
PERFORMER “The Beatles”
INDEX 01 15:54:20
TRACK 08 AUDIO
TITLE “Can’t Buy Me Love”
PERFORMER “The Beatles”
INDEX 00 16:43:67
INDEX 01 16:44:10
TRACK 09 AUDIO
TITLE “All My Loving”
PERFORMER “The Beatles”
INDEX 00 18:53:17
INDEX 01 18:54:17
TRACK 10 AUDIO
TITLE “You Can’t Do That”
PERFORMER “The Beatles”
INDEX 00 21:13:20
INDEX 01 21:13:40
TRACK 11 AUDIO
TITLE “And I Love Her”
PERFORMER “The Beatles”
INDEX 00 23:54:00
INDEX 01 23:55:45
TRACK 12 AUDIO
TITLE “A Hard Day’s Night”
PERFORMER “The Beatles”
INDEX 00 25:46:62
INDEX 01 25:47:50
TRACK 13 AUDIO
TITLE “I Wanna Be Your Man”
PERFORMER “The Beatles”
INDEX 00 28:28:22
INDEX 01 28:31:42
TRACK 14 AUDIO
TITLE “Long Tall Sally”
PERFORMER “The Beatles”
INDEX 01 30:19:20
TRACK 15 AUDIO
TITLE “Boys”
PERFORMER “The Beatles”
INDEX 00 32:04:17
INDEX 01 32:04:37
TRACK 16 AUDIO
TITLE “Shout”
PERFORMER “The Beatles”
INDEX 00 33:53:45
INDEX 01 33:54:07
TRACK 17 AUDIO
TITLE “I’ll Be Back [Take2]”
PERFORMER “The Beatles”
INDEX 00 35:22:42
INDEX 01 35:25:25
TRACK 18 AUDIO
TITLE “I’ll Be Back [Take3]”
PERFORMER “The Beatles”
INDEX 01 36:38:10
TRACK 19 AUDIO
TITLE “You Know What To Do”
PERFORMER “The Beatles”
INDEX 00 38:34:60
INDEX 01 38:36:00
TRACK 20 AUDIO
TITLE “No Reply [demo]”
PERFORMER “The Beatles”
INDEX 00 40:33:70
INDEX 01 40:34:52
TRACK 21 AUDIO
TITLE “Mr Moonlight”
PERFORMER “The Beatles”
INDEX 00 42:20:15
INDEX 01 42:21:00
TRACK 22 AUDIO
TITLE “Leave My Kitten Alone”
PERFORMER “The Beatles”
INDEX 00 45:07:60
INDEX 01 45:08:37
TRACK 23 AUDIO
TITLE “No Reply”
PERFORMER “The Beatles”
INDEX 00 48:00:70
INDEX 01 48:05:02
TRACK 24 AUDIO
TITLE “Eight Days A Week [False Starts]”
PERFORMER “The Beatles”
INDEX 00 50:31:62
INDEX 01 50:34:02
TRACK 25 AUDIO
TITLE “Eight Days A Week”
PERFORMER “The Beatles”
INDEX 01 51:59:10
TRACK 26 AUDIO
TITLE “Hey-Hey-Hey-Hey!”
PERFORMER “Kansas City”
INDEX 00 54:46:52
INDEX 01 54:46:57


Leave a Reply

Your email address will not be published. Required fields are marked *

This site uses Akismet to reduce spam. Learn how your comment data is processed.