The Beatles – Abbey Road (Remastered)




Artist: The Beatles
Year: 1969/1995
Genre: Rock
Notes: Discogs
Add. Notes: Remastered
Cover incl.: Yes
Encoder: FLAC
Bitrate: ~800 kBit/s (44.1 kHz/16 Bit/s)
Log & Cue incl.: Yes
Size: 307 MB
Password: “slam” (without ” “)


All Downloads/Hosters are compatible

Download 1
KatFile.com
Turbobit.net
FileFactory.com
Rapidgator.net
Download 2
KatFile.com
Turbobit.net
FileFactory.com
Rapidgator.net

Tracklist:

1 - Come Together - 4:20
2 - Something - 3:03
3 - Maxwell’s Silver Hammer - 3:27
4 - Oh! Darling - 3:26
5 - Octopus’s Garden - 2:51
6 - I Want You (She’s So Heavy) - 
7:47
7 - Here Comes The Sun - 3:05
8 - Because - 2:45
9 - You Never Give Me Your Money - 
4:02
10 - Sun King - 2:26
11 - Mean Mr Mustard - 1:06
12 - Polythene Pam - 1:12
13 - She Came In Through The 
Bathroom Window - 1:57
14 - Golden Slumbers - 1:31
15 - Carry That Weight - 1:36
16 - The End - 2:19
17 - Her Majesty - 0:23

EAC-Log, CUE-Sheed & NFO:

Click to open spoiler
Exact Audio Copy V1.3 from 2. September 2016

EAC extraction logfile from 11. July 2017, 22:19

The Beatles / Abbey Road (CDP 7 46446 2)

Used drive : PLEXTOR DVDR PX-891SA Adapter: 1 ID: 0

Read mode : Secure
Utilize accurate stream : Yes
Defeat audio cache : Yes
Make use of C2 pointers : No

Read offset correction : 6
Overread into Lead-In and Lead-Out : No
Fill up missing offset samples with silence : Yes
Delete leading and trailing silent blocks : No
Null samples used in CRC calculations : Yes
Used interface : Native Win32 interface for Win NT & 2000

Used output format : User Defined Encoder
Selected bitrate : 128 kBit/s
Quality : High
Add ID3 tag : No
Command line compressor : C:\Program Files (x86)\Exact Audio Copy\Flac\flac.exe
Additional command line options : -V -8 -T “Genre=%genre%” -T “Artist=%artist%” -T “Title=%title%” -T “Album=%albumtitle%” -T “Date=%year%” -T “Tracknumber=%tracknr%” -T “Comment=%comment%” %source%

TOC of the extracted CD

Track | Start | Length | Start sector | End sector
———————————————————
1 | 0:00.33 | 4:20.47 | 33 | 19579
2 | 4:21.05 | 3:03.00 | 19580 | 33304
3 | 7:24.05 | 3:27.20 | 33305 | 48849
4 | 10:51.25 | 3:26.53 | 48850 | 64352
5 | 14:18.03 | 2:51.12 | 64353 | 77189
6 | 17:09.15 | 7:47.13 | 77190 | 112227
7 | 24:56.28 | 3:05.42 | 112228 | 126144
8 | 28:01.70 | 2:45.40 | 126145 | 138559
9 | 30:47.35 | 4:02.30 | 138560 | 156739
10 | 34:49.65 | 2:26.23 | 156740 | 167712
11 | 37:16.13 | 1:06.22 | 167713 | 172684
12 | 38:22.35 | 1:12.55 | 172685 | 178139
13 | 39:35.15 | 1:57.55 | 178140 | 186969
14 | 41:32.70 | 1:31.43 | 186970 | 193837
15 | 43:04.38 | 1:36.32 | 193838 | 201069
16 | 44:40.70 | 2:20.20 | 201070 | 211589
17 | 47:01.15 | 0:23.20 | 211590 | 213334

Range status and errors

Selected range

Filename H:\dafnaplus\Abbey Road\The Beatles – Abbey Road (CDP 7 46446 2).wav

Peak level 89.4 %
Extraction speed 7.3 X
Range quality 100.0 %
Test CRC EFAA65DF
Copy CRC EFAA65DF
Copy OK

No errors occurred

AccurateRip summary

Track 1 accurately ripped (confidence 9) [A73DCD35] (AR v2)
Track 2 accurately ripped (confidence 8) [53C00AED] (AR v2)
Track 3 accurately ripped (confidence 9) [FF63CE67] (AR v2)
Track 4 accurately ripped (confidence 9) [F265A378] (AR v2)
Track 5 accurately ripped (confidence 9) [E454F284] (AR v2)
Track 6 accurately ripped (confidence 8) [053ACC72] (AR v2)
Track 7 accurately ripped (confidence 8) [081C4AE5] (AR v2)
Track 8 accurately ripped (confidence 9) [667233F2] (AR v2)
Track 9 accurately ripped (confidence 8) [D8B70C76] (AR v2)
Track 10 accurately ripped (confidence 7) [9E7430F6] (AR v2)
Track 11 accurately ripped (confidence 7) [C189FE08] (AR v2)
Track 12 accurately ripped (confidence 7) [06BA010C] (AR v2)
Track 13 accurately ripped (confidence 8) [D122A481] (AR v2)
Track 14 accurately ripped (confidence 7) [E6A36A18] (AR v2)
Track 15 accurately ripped (confidence 8) [5FDE28B7] (AR v2)
Track 16 accurately ripped (confidence 7) [DDA5403A] (AR v2)
Track 17 accurately ripped (confidence 8) [EA81D1A8] (AR v2)

All tracks accurately ripped

End of status report

—- CUETools DB Plugin V2.1.6

[CTDB TOCID: joFRwegSBLaFrhW4171P8iw5ANY-] found
Submit result: joFRwegSBLaFrhW4171P8iw5ANY- has been confirmed
Track | CTDB Status
1 | (15/16) Accurately ripped
2 | (16/16) Accurately ripped
3 | (16/16) Accurately ripped
4 | (16/16) Accurately ripped
5 | (16/16) Accurately ripped
6 | (16/16) Accurately ripped
7 | (16/16) Accurately ripped
8 | (16/16) Accurately ripped
9 | (16/16) Accurately ripped
10 | (16/16) Accurately ripped
11 | (16/16) Accurately ripped
12 | (16/16) Accurately ripped
13 | (16/16) Accurately ripped
14 | (16/16) Accurately ripped
15 | (16/16) Accurately ripped
16 | (16/16) Accurately ripped
17 | (16/16) Accurately ripped

==== Log checksum 54886D9358B34138191F06054472410C48B18A62CAD96D405E0D80C92CCDC7F4 ====

REM GENRE Rock
REM DATE 1987
REM DISCID FA0B1C11
REM COMMENT “ExactAudioCopy v1.3”
PERFORMER “The Beatles”
TITLE “Abbey Road (CDP 7 46446 2)”
REM COMPOSER “”
FILE “The Beatles – Abbey Road (CDP 7 46446 2).flac” WAVE
TRACK 01 AUDIO
TITLE “Come Together”
PERFORMER “The Beatles”
REM COMPOSER “”
INDEX 00 00:00:00
INDEX 01 00:00:33
TRACK 02 AUDIO
TITLE “Something”
PERFORMER “The Beatles”
REM COMPOSER “”
INDEX 00 04:18:23
INDEX 01 04:21:05
TRACK 03 AUDIO
TITLE “Maxwell’s Silver Hammer”
PERFORMER “The Beatles”
REM COMPOSER “”
INDEX 00 07:21:33
INDEX 01 07:24:05
TRACK 04 AUDIO
TITLE “Oh! Darling”
PERFORMER “The Beatles”
REM COMPOSER “”
INDEX 00 10:50:20
INDEX 01 10:51:25
TRACK 05 AUDIO
TITLE “Octopus’s Garden”
PERFORMER “The Beatles”
REM COMPOSER “”
INDEX 00 14:17:60
INDEX 01 14:18:03
TRACK 06 AUDIO
TITLE “I Want You (She’s So Heavy)”
PERFORMER “The Beatles”
REM COMPOSER “”
INDEX 00 17:07:28
INDEX 01 17:09:15
TRACK 07 AUDIO
TITLE “Here Comes The Sun”
PERFORMER “The Beatles”
REM COMPOSER “”
INDEX 00 24:53:53
INDEX 01 24:56:28
TRACK 08 AUDIO
TITLE “Because”
PERFORMER “The Beatles”
REM COMPOSER “”
INDEX 00 28:01:35
INDEX 01 28:01:70
TRACK 09 AUDIO
TITLE “You Never Give Me Your Money”
PERFORMER “The Beatles”
REM COMPOSER “”
INDEX 00 30:47:33
INDEX 01 30:47:35
TRACK 10 AUDIO
TITLE “Sun King”
PERFORMER “The Beatles”
REM COMPOSER “”
INDEX 00 34:49:63
INDEX 01 34:49:65
TRACK 11 AUDIO
TITLE “Mean Mr Mustard”
PERFORMER “The Beatles”
REM COMPOSER “”
INDEX 00 37:16:10
INDEX 01 37:16:13
TRACK 12 AUDIO
TITLE “Polythene Pam”
PERFORMER “The Beatles”
REM COMPOSER “”
INDEX 00 38:22:33
INDEX 01 38:22:35
TRACK 13 AUDIO
TITLE “She Came In Through The Bathroom Window”
PERFORMER “The Beatles”
REM COMPOSER “”
INDEX 00 39:35:13
INDEX 01 39:35:15
TRACK 14 AUDIO
TITLE “Golden Slumbers”
PERFORMER “The Beatles”
REM COMPOSER “”
INDEX 00 41:32:68
INDEX 01 41:32:70
TRACK 15 AUDIO
TITLE “Carry That Weight”
PERFORMER “The Beatles”
REM COMPOSER “”
INDEX 00 43:04:35
INDEX 01 43:04:38
TRACK 16 AUDIO
TITLE “The End”
PERFORMER “The Beatles”
REM COMPOSER “”
INDEX 01 44:40:70
TRACK 17 AUDIO
TITLE “Her Majesty”
PERFORMER “The Beatles”
REM COMPOSER “”
INDEX 00 46:46:45
INDEX 01 47:01:15


Leave a Reply

Your email address will not be published. Required fields are marked *

Enter the text from the image below
 

This site uses Akismet to reduce spam. Learn how your comment data is processed.