The Beatles – A Hard Day’s Night (Remastered Japanese Edition)




Artist: The Beatles
Year: 1964/1987
Genre: Rock
Notes: Discogs
Add. Notes: Remastered Japanese Edition
Cover incl.: Yes
Encoder: FLAC
Bitrate: ~900 kBit/s (44.1 kHz/16 Bit/s)
Log & Cue incl.: Yes
Size: 202,9 MB
Password: “slam” (without ” “)


All Downloads/Hosters are compatible

Download 1
KatFile.com
Turbobit.net
Rapidgator.net
Download 2
KatFile.com
Turbobit.net
Rapidgator.net

Tracklist:

1 - A Hard Day's Night - 2:32
2 - I Should Have Known Better - 2:44
3 - If I Fell - 2:22
4 - I'm Happy Just To Dance With You - 1:58
5 - And I Love Her - 2:31
6 - Tell Me Why - 2:10
7 - Can't Buy Me Love - 2:14
8 - Any Time At All - 2:13
9 - I'll Cry Instead - 1:47
10 - Things We Said Today - 2:38
11 - When I Get Home - 2:18
12 - You Can't Do That - 2:37
13 - I'll Be Back - 2:20

EAC-Log, CUE-Sheed & NFO:

Click to open spoiler
Exact Audio Copy V1.0 beta 3 from 29. August 2011

Отчёт EAC об извлечении, выполненном 25. октября 2013, 0:24

The Beatles / A Hard Day’s Night

Дисковод: MATSHITADVD-RAM UJ8B1AS Adapter: 0 ID: 1

Режим чтения : Достоверность
Использование точного потока : Да
Отключение кэша аудио : Да
Использование указателей C2 : Нет

Коррекция смещения при чтении : 6
Способность читать области Lead-in и Lead-out : Нет
Заполнение пропущенных сэмплов тишиной : Да
Удаление блоков с тишиной в начале и конце : Нет
При вычислениях CRC использовались нулевые сэмплы : Да
Интерфейс : Встроенный Win32-интерфейс для Win NT/2000

Выходной формат : Пользовательский кодировщик
Выбранный битрейт : 768 kBit/s
Качество : Высокий
Добавление ID3-тега : Нет
Утилита сжатия : C:\Program Files (x86)\Exact Audio Copy\FLAC\FLAC.EXE
Дополнительные параметры : -6 -V -T “ARTIST=%artist%” -T “TITLE=%title%” -T “ALBUM=%albumtitle%” -T “DATE=%year%” -T “TRACKNUMBER=%tracknr%” -T “GENRE=%genre%” -T “COMMENT=%comment%” -T “BAND=%albuminterpret%” -T “COMPOSER=%composer%” %haslyrics%–tag-from-file=LYRICS=”%lyricsfile%”%haslyrics% -T “DISCNUMBER=%cdnumber%” -T “TOTALDISCS=%totalcds%” -T “TOTALTRACKS=%numtracks%” %hascover%–picture=”%coverfile%”%hascover% %source% -o %dest%

TOC извлечённого CD

Трек | Старт | Длительность | Начальный сектор | Конечный сектор
———————————————————————
1 | 0:00.32 | 2:32.40 | 32 | 11471
2 | 2:32.72 | 2:44.08 | 11472 | 23779
3 | 5:17.05 | 2:22.02 | 23780 | 34431
4 | 7:39.07 | 1:58.53 | 34432 | 43334
5 | 9:37.60 | 2:31.05 | 43335 | 54664
6 | 12:08.65 | 2:10.05 | 54665 | 64419
7 | 14:18.70 | 2:14.70 | 64420 | 74539
8 | 16:33.65 | 2:13.30 | 74540 | 84544
9 | 18:47.20 | 1:47.55 | 84545 | 92624
10 | 20:35.00 | 2:38.62 | 92625 | 104536
11 | 23:13.62 | 2:18.28 | 104537 | 114914
12 | 25:32.15 | 2:37.47 | 114915 | 126736
13 | 28:09.62 | 2:20.43 | 126737 | 137279

Характеристики диапазона извлечения и сообщения об ошибках

Выбранный диапазон

Имя файла D:\Gh@nz 2\The Beatles 1964 A Hard Day’s Night Toshiba-EMI Japan CP32-5323 obi\The Beatles – A Hard Day’s Night.wav

Пиковый уровень 100.0 %
Скорость извлечения 1.7 X
Качество диапазона 100.0 %
CRC теста 24DD7EFE
CRC копии 24DD7EFE
Копирование… OK

Ошибок не произошло

AccurateRip: сводка

Трек 1 : извлечено точно (доверие 9) [91A925B2] (AR v2)
Трек 2 : извлечено точно (доверие 9) [F118AB0B] (AR v2)
Трек 3 : извлечено точно (доверие 9) [B0292DEF] (AR v2)
Трек 4 : извлечено точно (доверие 9) [1FD2F9D9] (AR v2)
Трек 5 : извлечено точно (доверие 9) [0A3FA853] (AR v2)
Трек 6 : извлечено точно (доверие 9) [D668B16C] (AR v2)
Трек 7 : извлечено точно (доверие 9) [1A61BB23] (AR v2)
Трек 8 : извлечено точно (доверие 9) [D059A427] (AR v2)
Трек 9 : извлечено точно (доверие 9) [4BA46BA1] (AR v2)
Трек 10 : извлечено точно (доверие 9) [BAA2CBCF] (AR v2)
Трек 11 : извлечено точно (доверие 9) [E0BA32A8] (AR v2)
Трек 12 : извлечено точно (доверие 8) [2AA01D9F] (AR v2)
Трек 13 : извлечено точно (доверие 9) [F09BB24C] (AR v2)

Все треки извлечены точно

Конец отчёта

==== Контрольная сумма отчёта A85AE806DB77941BA2A12B2EC46D126C95A009665518DB755FF9B59AC0EAB391 ====

REM GENRE Rock
REM DATE 1964
REM DISCID B207260D
REM COMMENT “ExactAudioCopy v1.0b3”
PERFORMER “The Beatles”
TITLE “A Hard Day’s Night”
FILE “The Beatles – A Hard Day’s Night.flac” WAVE
TRACK 01 AUDIO
TITLE “A Hard Day’s Night”
PERFORMER “The Beatles”
INDEX 00 00:00:00
INDEX 01 00:00:32
TRACK 02 AUDIO
TITLE “I Should Have Known Better”
PERFORMER “The Beatles”
INDEX 00 02:29:65
INDEX 01 02:32:72
TRACK 03 AUDIO
TITLE “If I Fell”
PERFORMER “The Beatles”
INDEX 00 05:14:05
INDEX 01 05:17:05
TRACK 04 AUDIO
TITLE “I’m Happy Just to Dance With You”
PERFORMER “The Beatles”
INDEX 00 07:35:27
INDEX 01 07:39:07
TRACK 05 AUDIO
TITLE “And I Love Her”
PERFORMER “The Beatles”
INDEX 00 09:34:40
INDEX 01 09:37:60
TRACK 06 AUDIO
TITLE “Tell Me Why”
PERFORMER “The Beatles”
INDEX 00 12:06:20
INDEX 01 12:08:65
TRACK 07 AUDIO
TITLE “Can’t Buy Me Love”
PERFORMER “The Beatles”
INDEX 00 14:15:52
INDEX 01 14:18:70
TRACK 08 AUDIO
TITLE “Any Time At All”
PERFORMER “The Beatles”
INDEX 00 16:30:45
INDEX 01 16:33:65
TRACK 09 AUDIO
TITLE “I’ll Cry Instead”
PERFORMER “The Beatles”
INDEX 00 18:44:32
INDEX 01 18:47:20
TRACK 10 AUDIO
TITLE “Things We Said Today”
PERFORMER “The Beatles”
INDEX 00 20:31:47
INDEX 01 20:35:00
TRACK 11 AUDIO
TITLE “When I Get Home”
PERFORMER “The Beatles”
INDEX 00 23:10:00
INDEX 01 23:13:62
TRACK 12 AUDIO
TITLE “You Can’t Do That”
PERFORMER “The Beatles”
INDEX 00 25:28:65
INDEX 01 25:32:15
TRACK 13 AUDIO
TITLE “I’ll Be Back”
PERFORMER “The Beatles”
INDEX 00 28:05:70
INDEX 01 28:09:62


Leave a Reply

Your email address will not be published. Required fields are marked *

This site uses Akismet to reduce spam. Learn how your comment data is processed.