The Beatles – A Hard Day’s Night (Reissue)




Artist: The Beatles
Year: 1964/1993
Genre: Rock
Notes: Discogs
Add. Notes: Reissue
Cover incl.: Yes
Encoder: FLAC
Bitrate: ~900 kBit/s (44.1 kHz/16 Bit/s)
Log & Cue incl.: Yes/Yes
Size: 232,4 MB
Password: “slam” (without ” “)


All Downloads/Hosters are compatible

Download 1
KatFile.com
Turbobit.net
FileFactory.com
Rapidgator.net
Download 2
KatFile.com
Turbobit.net
FileFactory.com
Rapidgator.net

Tracklist:

1 A Hard Day's Night 2:29
2 I Should Have Known Better 2:41
3 If I Fell 2:18
4 I'm Happy Just To Dance With You 1:55
5 And I Love Her 2:28
6 Tell Me Why 2:06
7 Can't Buy Me Love 2:11
8 Any Time At All 2:10
9 I'll Cry Instead 1:44
10 Things We Said Today 2:35
11 When I Get Home 2:15
12 You Can't Do That 2:33
13 I'll Be Back 2:20

EAC-Log, CUE-Sheed & NFO:

Click to open spoiler
Exact Audio Copy V1.3 from 2. September 2016

EAC extraction logfile from 3. October 2018, 22:24

The Beatles / A Hard Day’s Night (CDP 7 46437 2)

Used drive : ASUS DRW-24D5MT Adapter: 1 ID: 0

Read mode : Secure
Utilize accurate stream : Yes
Defeat audio cache : Yes
Make use of C2 pointers : No

Read offset correction : 6
Overread into Lead-In and Lead-Out : No
Fill up missing offset samples with silence : Yes
Delete leading and trailing silent blocks : No
Null samples used in CRC calculations : Yes
Used interface : Native Win32 interface for Win NT & 2000

Used output format : User Defined Encoder
Selected bitrate : 768 kBit/s
Quality : High
Add ID3 tag : No
Command line compressor : C:\Program Files (x86)\Exact Audio Copy\Flac\flac.exe
Additional command line options : -V -8 -T “Genre=%genre%” -T “Artist=%artist%” -T “Title=%title%” -T “Album=%albumtitle%” -T “Date=%year%” -T “Tracknumber=%tracknr%” -T “Comment=%comment%” %source%

TOC of the extracted CD

Track | Start | Length | Start sector | End sector
———————————————————
1 | 0:00.33 | 2:32.40 | 33 | 11472
2 | 2:32.73 | 2:44.07 | 11473 | 23779
3 | 5:17.05 | 2:22.03 | 23780 | 34432
4 | 7:39.08 | 1:58.52 | 34433 | 43334
5 | 9:37.60 | 2:31.05 | 43335 | 54664
6 | 12:08.65 | 2:10.05 | 54665 | 64419
7 | 14:18.70 | 2:14.70 | 64420 | 74539
8 | 16:33.65 | 2:13.30 | 74540 | 84544
9 | 18:47.20 | 1:47.55 | 84545 | 92624
10 | 20:35.00 | 2:38.63 | 92625 | 104537
11 | 23:13.63 | 2:18.27 | 104538 | 114914
12 | 25:32.15 | 2:37.48 | 114915 | 126737
13 | 28:09.63 | 2:20.42 | 126738 | 137279

Range status and errors

Selected range

Filename I:\dafnaplus\The Beatles – A Hard Day’s Night\The Beatles – A Hard Day’s Night (CDP 7 46437 2).wav

Peak level 100.0 %
Extraction speed 1.5 X
Range quality 100.0 %
Test CRC 10F9C8BB
Copy CRC 10F9C8BB
Copy OK

No errors occurred

AccurateRip summary

Track 1 accurately ripped (confidence 45) [01C84C4D] (AR v2)
Track 2 accurately ripped (confidence 46) [F8211CD7] (AR v2)
Track 3 accurately ripped (confidence 46) [33FB580B] (AR v2)
Track 4 accurately ripped (confidence 46) [61739034] (AR v2)
Track 5 accurately ripped (confidence 47) [F43C6896] (AR v2)
Track 6 accurately ripped (confidence 46) [0845AFFF] (AR v2)
Track 7 accurately ripped (confidence 46) [E3C747F4] (AR v2)
Track 8 accurately ripped (confidence 46) [835F4FFB] (AR v2)
Track 9 accurately ripped (confidence 46) [CBDFAF93] (AR v2)
Track 10 accurately ripped (confidence 47) [87F2126C] (AR v2)
Track 11 accurately ripped (confidence 46) [4EE9A958] (AR v2)
Track 12 accurately ripped (confidence 46) [776A0D0A] (AR v2)
Track 13 accurately ripped (confidence 46) [F69117A1] (AR v2)

All tracks accurately ripped

End of status report

—- CUETools DB Plugin V2.1.6

[CTDB TOCID: RBni2FOmsjaZBvY3RmKEIvkBfBM-] found
Submit result: already submitted
Track | CTDB Status
1 | (1005/1064) Accurately ripped, or (23/1064) differs in 1 samples @02:01:35
2 | (1034/1064) Accurately ripped
3 | (1029/1064) Accurately ripped
4 | (1031/1064) Accurately ripped
5 | (1037/1064) Accurately ripped
6 | (1038/1064) Accurately ripped
7 | (1037/1064) Accurately ripped
8 | (1033/1064) Accurately ripped
9 | (1032/1064) Accurately ripped
10 | (1034/1064) Accurately ripped
11 | (1035/1064) Accurately ripped
12 | (1034/1064) Accurately ripped
13 | (954/1064) Accurately ripped, or (69/1064) differs in 1470 samples @01:26:11-01:26:13

==== Log checksum E3398C47EE4668D783757D4EB58217D81845BB0C1CC16C94FB30B858D3C061FA ====

REM GENRE Rock
REM DATE 1987
REM DISCID B207260D
REM COMMENT “ExactAudioCopy v1.3”
PERFORMER “The Beatles”
TITLE “A Hard Day’s Night (CDP 7 46437 2)”
REM COMPOSER “”
FILE “The Beatles – A Hard Day’s Night (CDP 7 46437 2).flac” WAVE
TRACK 01 AUDIO
TITLE “A Hard Day’s Night”
PERFORMER “The Beatles”
REM COMPOSER “”
INDEX 00 00:00:00
INDEX 01 00:00:33
TRACK 02 AUDIO
TITLE “I Should Have Known Better”
PERFORMER “The Beatles”
REM COMPOSER “”
INDEX 00 02:29:65
INDEX 01 02:32:73
TRACK 03 AUDIO
TITLE “If I Fell”
PERFORMER “The Beatles”
REM COMPOSER “”
INDEX 00 05:14:05
INDEX 01 05:17:05
TRACK 04 AUDIO
TITLE “I’m Happy Just to Dance With You”
PERFORMER “The Beatles”
REM COMPOSER “”
INDEX 00 07:35:28
INDEX 01 07:39:08
TRACK 05 AUDIO
TITLE “And I Love Her”
PERFORMER “The Beatles”
REM COMPOSER “”
INDEX 00 09:34:40
INDEX 01 09:37:60
TRACK 06 AUDIO
TITLE “Tell Me Why”
PERFORMER “The Beatles”
REM COMPOSER “”
INDEX 00 12:06:20
INDEX 01 12:08:65
TRACK 07 AUDIO
TITLE “Can’t Buy Me Love”
PERFORMER “The Beatles”
REM COMPOSER “”
INDEX 00 14:15:53
INDEX 01 14:18:70
TRACK 08 AUDIO
TITLE “Any Time At All”
PERFORMER “The Beatles”
REM COMPOSER “”
INDEX 00 16:30:45
INDEX 01 16:33:65
TRACK 09 AUDIO
TITLE “I’ll Cry Instead”
PERFORMER “The Beatles”
REM COMPOSER “”
INDEX 00 18:44:33
INDEX 01 18:47:20
TRACK 10 AUDIO
TITLE “Things We Said Today”
PERFORMER “The Beatles”
REM COMPOSER “”
INDEX 00 20:31:48
INDEX 01 20:35:00
TRACK 11 AUDIO
TITLE “When I Get Home”
PERFORMER “The Beatles”
REM COMPOSER “”
INDEX 00 23:10:00
INDEX 01 23:13:63
TRACK 12 AUDIO
TITLE “You Can’t Do That”
PERFORMER “The Beatles”
REM COMPOSER “”
INDEX 00 25:28:65
INDEX 01 25:32:15
TRACK 13 AUDIO
TITLE “I’ll Be Back”
PERFORMER “The Beatles”
REM COMPOSER “”
INDEX 00 28:05:70
INDEX 01 28:09:63


Leave a Reply

Your email address will not be published. Required fields are marked *

Enter the text from the image below
 

This site uses Akismet to reduce spam. Learn how your comment data is processed.