The Beatles – 1967 – 1970 (Remastered)




Artist: The Beatles
Year: 1993
Genre: Rock
Notes: Discogs
Add. Notes: Remastered
Cover incl.: Yes
Encoder: FLAC
Bitrate: ~900 kBit/s (44.1 kHz/16 Bit/s)
Log & Cue incl.: Yes
Size: 698,69 MB
Password: “slam” (without ” “)


All Downloads/Hosters are compatible

Download 1
Turbobit.net
KatFile.com
Rapidgator.net
Usersdrive.com
Download 2
Turbobit.net
KatFile.com
Rapidgator.net
Usersdrive.com

Tracklist:

1-1 - Strawberry Fields Forever - 4:08
1-2 - Penny Lane - 3:02
1-3 - Sgt. Pepper's Lonely Hearts Club Band - 2:01
1-4 - With A Little Help From My Friends - 2:44
1-5 - Lucy In The Sky With Diamonds - 3:27
1-6 - A Day In The Life - 5:06
1-7 - All You Need Is Love - 3:49
1-8 - I Am The Walrus - 4:35
1-9 - Hello, Goodbye - 3:30
1-10 - The Fool On The Hill - 3:00
1-11 - Magical Mystery Tour - 2:49
1-12 - Lady Madonna - 2:19
1-13 - Hey Jude - 7:08
1-14 - Revolution - 3:24
2-1 - Back In The USSR - 2:46
2-2 - While My Guitar Gently Weeps - 4:47
2-3 - Ob-La-Di, Ob-La-Da - 3:11
2-4 - Get Back - 3:13
2-5 - Don't Let Me Down - 3:35
2-6 - The Ballad Of John And Yoko - 3:00
2-7 - Old Brown Shoe - 3:20
2-8 - Here Comes The Sun - 3:07
2-9 - Come Together - 4:19
2-10 - Something - 3:03
2-11 - Octopus's Garden - 2:52
2-12 - Let It Be - 3:52
2-13 - Across The Universe - 3:47
2-14 - The Long And Winding Road - 3:37

EAC-Log, CUE-Sheed & NFO:

Click to open spoiler
Exact Audio Copy V1.0 beta 3 from 29. August 2011

EAC extraction logfile from 23. August 2013, 17:24

The Beatles / 1967 – 1970 (Disc 1)

Used drive : PLEXTOR DVDR PX-891SA Adapter: 1 ID: 0

Read mode : Secure
Utilize accurate stream : Yes
Defeat audio cache : Yes
Make use of C2 pointers : No

Read offset correction : 6
Overread into Lead-In and Lead-Out : No
Fill up missing offset samples with silence : Yes
Delete leading and trailing silent blocks : No
Null samples used in CRC calculations : Yes
Used interface : Native Win32 interface for Win NT & 2000

Used output format : User Defined Encoder
Selected bitrate : 1024 kBit/s
Quality : High
Add ID3 tag : No
Command line compressor : C:\Program Files\Exact Audio Copy\Flac\flac.exe
Additional command line options : -V -8 -T “Genre=%genre%” -T “Artist=%artist%” -T “Title=%title%” -T “Album=%albumtitle%” -T “Date=%year%” -T “Tracknumber=%tracknr%” -T “Comment=%comment%” %source%

TOC of the extracted CD

Track | Start | Length | Start sector | End sector
———————————————————
1 | 0:00.33 | 4:08.30 | 33 | 18662
2 | 4:08.63 | 3:01.55 | 18663 | 32292
3 | 7:10.43 | 2:01.12 | 32293 | 41379
4 | 9:11.55 | 2:43.65 | 41380 | 53669
5 | 11:55.45 | 3:27.30 | 53670 | 69224
6 | 15:23.00 | 5:06.18 | 69225 | 92192
7 | 20:29.18 | 3:48.72 | 92193 | 109364
8 | 24:18.15 | 4:34.63 | 109365 | 129977
9 | 28:53.03 | 3:29.62 | 129978 | 145714
10 | 32:22.65 | 2:59.58 | 145715 | 159197
11 | 35:22.48 | 2:48.47 | 159198 | 171844
12 | 38:11.20 | 2:19.03 | 171845 | 182272
13 | 40:30.23 | 7:08.30 | 182273 | 214402
14 | 47:38.53 | 3:23.42 | 214403 | 229669

Range status and errors

Selected range

Filename I:\dafnaplus\Beatles 1967 – 1970\Disc 1\The Beatles – 1967 – 1970 (Disc 1).wav

Peak level 100.0 %
Extraction speed 7.7 X
Range quality 99.9 %
Test CRC F95D5B1A
Copy CRC F95D5B1A
Copy OK

No errors occurred

AccurateRip summary

Track 1 accurately ripped (confidence 200) [AA5C3D36] (AR v2)
Track 2 accurately ripped (confidence 200) [A3FD8EA6] (AR v2)
Track 3 accurately ripped (confidence 200) [37815087] (AR v2)
Track 4 accurately ripped (confidence 200) [16E7BD65] (AR v2)
Track 5 accurately ripped (confidence 200) [3A81FEA1] (AR v2)
Track 6 accurately ripped (confidence 200) [1B9549BC] (AR v2)
Track 7 accurately ripped (confidence 200) [755E0F37] (AR v2)
Track 8 accurately ripped (confidence 200) [356E198E] (AR v2)
Track 9 accurately ripped (confidence 200) [53D778F2] (AR v2)
Track 10 accurately ripped (confidence 200) [22565FE7] (AR v2)
Track 11 accurately ripped (confidence 200) [C2D934B6] (AR v2)
Track 12 accurately ripped (confidence 200) [431CC5CE] (AR v2)
Track 13 accurately ripped (confidence 200) [6C94E1F5] (AR v2)
Track 14 accurately ripped (confidence 200) [1B99CEC6] (AR v2)

All tracks accurately ripped

End of status report

==== Log checksum 76D54B77C2014A50562E219EAFB1ED5C00109A3DA1AEA9BC247D675EC0AA66FD ====

Exact Audio Copy V1.0 beta 3 from 29. August 2011

EAC extraction logfile from 23. August 2013, 17:45

The Beatles / 1967 – 1970 (Disc 2)

Used drive : PLEXTOR DVDR PX-891SA Adapter: 1 ID: 0

Read mode : Secure
Utilize accurate stream : Yes
Defeat audio cache : Yes
Make use of C2 pointers : No

Read offset correction : 6
Overread into Lead-In and Lead-Out : No
Fill up missing offset samples with silence : Yes
Delete leading and trailing silent blocks : No
Null samples used in CRC calculations : Yes
Used interface : Native Win32 interface for Win NT & 2000

Used output format : User Defined Encoder
Selected bitrate : 1024 kBit/s
Quality : High
Add ID3 tag : No
Command line compressor : C:\Program Files\Exact Audio Copy\Flac\flac.exe
Additional command line options : -V -8 -T “Genre=%genre%” -T “Artist=%artist%” -T “Title=%title%” -T “Album=%albumtitle%” -T “Date=%year%” -T “Tracknumber=%tracknr%” -T “Comment=%comment%” %source%

TOC of the extracted CD

Track | Start | Length | Start sector | End sector
———————————————————
1 | 0:00.33 | 2:46.17 | 33 | 12499
2 | 2:46.50 | 4:46.50 | 12500 | 33999
3 | 7:33.25 | 3:11.28 | 34000 | 48352
4 | 10:44.53 | 3:12.40 | 48353 | 62792
5 | 13:57.18 | 3:34.62 | 62793 | 78904
6 | 17:32.05 | 2:59.68 | 78905 | 92397
7 | 20:31.73 | 3:20.07 | 92398 | 107404
8 | 23:52.05 | 3:07.13 | 107405 | 121442
9 | 26:59.18 | 4:18.67 | 121443 | 140859
10 | 31:18.10 | 3:02.60 | 140860 | 154569
11 | 34:20.70 | 2:52.08 | 154570 | 167477
12 | 37:13.03 | 3:52.30 | 167478 | 184907
13 | 41:05.33 | 3:47.17 | 184908 | 201949
14 | 44:52.50 | 3:37.25 | 201950 | 218249

Range status and errors

Selected range

Filename I:\dafnaplus\Beatles 1967 – 1970\Disc 2\The Beatles – 1967 – 1970 (Disc 2).wav

Peak level 97.7 %
Extraction speed 7.7 X
Range quality 99.9 %
Test CRC 6F1CEBE3
Copy CRC 6F1CEBE3
Copy OK

No errors occurred

AccurateRip summary

Track 1 accurately ripped (confidence 141) [3FB3D241] (AR v2)
Track 2 accurately ripped (confidence 142) [8C9EA0A4] (AR v2)
Track 3 accurately ripped (confidence 143) [814CB995] (AR v2)
Track 4 accurately ripped (confidence 143) [F523466B] (AR v2)
Track 5 accurately ripped (confidence 142) [D34C666D] (AR v2)
Track 6 accurately ripped (confidence 141) [7F668F0B] (AR v2)
Track 7 accurately ripped (confidence 142) [694AE7BE] (AR v2)
Track 8 accurately ripped (confidence 142) [17E7FD3A] (AR v2)
Track 9 accurately ripped (confidence 142) [8FD35B05] (AR v2)
Track 10 accurately ripped (confidence 143) [31864C78] (AR v2)
Track 11 accurately ripped (confidence 142) [EF0CDCD6] (AR v2)
Track 12 accurately ripped (confidence 143) [72A33926] (AR v2)
Track 13 accurately ripped (confidence 140) [D5377367] (AR v2)
Track 14 accurately ripped (confidence 142) [60AAF95B] (AR v2)

All tracks accurately ripped

End of status report

==== Log checksum C32604949642558DA5A0B317DECEEFA46BD9A6B504C62A07D63385ECD2A2E015 ====

REM GENRE Rock
REM DATE 1993
REM DISCID A60BF60E
REM COMMENT “ExactAudioCopy v1.0b3”
PERFORMER “The Beatles”
TITLE “1967 – 1970 (Disc 1)”
FILE “The Beatles – 1967 – 1970 (Disc 1).flac” WAVE
TRACK 01 AUDIO
TITLE “Stawberry Feilds Forever”
PERFORMER “The Beatles”
INDEX 00 00:00:00
INDEX 01 00:00:33
TRACK 02 AUDIO
TITLE “Penny Lane”
PERFORMER “The Beatles”
INDEX 00 04:07:65
INDEX 01 04:08:63
TRACK 03 AUDIO
TITLE “Sgt. Pepper’s Lonely Hearts Club Band”
PERFORMER “The Beatles”
INDEX 00 07:09:15
INDEX 01 07:10:43
TRACK 04 AUDIO
TITLE “With a Little Help Frome My Friends”
PERFORMER “The Beatles”
INDEX 00 09:11:53
INDEX 01 09:11:55
TRACK 05 AUDIO
TITLE “Lucy In The Sky With Diamonds ”
PERFORMER “The Beatles”
INDEX 00 11:55:43
INDEX 01 11:55:45
TRACK 06 AUDIO
TITLE “A Day In The Life ”
PERFORMER “The Beatles”
INDEX 00 15:21:13
INDEX 01 15:23:00
TRACK 07 AUDIO
TITLE “All You Need Is Love”
PERFORMER “The Beatles”
INDEX 00 20:28:25
INDEX 01 20:29:18
TRACK 08 AUDIO
TITLE “I Am The Walrus”
PERFORMER “The Beatles”
INDEX 00 24:17:43
INDEX 01 24:18:15
TRACK 09 AUDIO
TITLE “Hello, Goodbye ”
PERFORMER “The Beatles”
INDEX 00 28:50:70
INDEX 01 28:53:03
TRACK 10 AUDIO
TITLE “The Fool On The Hill”
PERFORMER “The Beatles”
INDEX 00 32:20:73
INDEX 01 32:22:65
TRACK 11 AUDIO
TITLE “Magic Mystery Tour”
PERFORMER “The Beatles”
INDEX 00 35:19:25
INDEX 01 35:22:48
TRACK 12 AUDIO
TITLE “Lady Madonna”
PERFORMER “The Beatles”
INDEX 00 38:10:25
INDEX 01 38:11:20
TRACK 13 AUDIO
TITLE “Hey Jude”
PERFORMER “The Beatles”
INDEX 00 40:27:28
INDEX 01 40:30:23
TRACK 14 AUDIO
TITLE “Revolution”
PERFORMER “The Beatles”
INDEX 00 47:37:58
INDEX 01 47:38:53

REM GENRE Rock
REM DATE 1993
REM DISCID BB0B5E0E
REM COMMENT “ExactAudioCopy v1.0b3”
CATALOG 0077779703920
PERFORMER “The Beatles”
TITLE “1967 – 1970 (Disc 2)”
FILE “The Beatles – 1967 – 1970 (Disc 2).flac” WAVE
TRACK 01 AUDIO
TITLE “Back In The USSR”
PERFORMER “The Beatles”
INDEX 00 00:00:00
INDEX 01 00:00:33
TRACK 02 AUDIO
TITLE “While My Guitar Gently Weeps”
PERFORMER “The Beatles”
INDEX 00 02:43:68
INDEX 01 02:46:50
TRACK 03 AUDIO
TITLE “Ob-La-Di, Ob-La-Da”
PERFORMER “The Beatles”
INDEX 00 07:31:25
INDEX 01 07:33:25
TRACK 04 AUDIO
TITLE “Get Back”
PERFORMER “The Beatles”
INDEX 00 10:42:60
INDEX 01 10:44:53
TRACK 05 AUDIO
TITLE “Don’t Let Me Down”
PERFORMER “The Beatles”
INDEX 00 13:55:35
INDEX 01 13:57:18
TRACK 06 AUDIO
TITLE “The Ballad Of John And Yoko”
PERFORMER “The Beatles”
INDEX 00 17:30:35
INDEX 01 17:32:05
TRACK 07 AUDIO
TITLE “Old Brown Shoe”
PERFORMER “The Beatles”
INDEX 00 20:29:58
INDEX 01 20:31:73
TRACK 08 AUDIO
TITLE “Here Comes The Sun”
PERFORMER “The Beatles”
INDEX 00 23:49:48
INDEX 01 23:52:05
TRACK 09 AUDIO
TITLE “Come Together”
PERFORMER “The Beatles”
INDEX 00 26:57:13
INDEX 01 26:59:18
TRACK 10 AUDIO
TITLE “Something”
PERFORMER “The Beatles”
INDEX 00 31:15:28
INDEX 01 31:18:10
TRACK 11 AUDIO
TITLE “Octopus’s Garden”
PERFORMER “The Beatles”
INDEX 00 34:17:60
INDEX 01 34:20:70
TRACK 12 AUDIO
TITLE “Let It Be”
PERFORMER “The Beatles”
INDEX 00 37:09:68
INDEX 01 37:13:03
TRACK 13 AUDIO
TITLE “Across The Universe”
PERFORMER “The Beatles”
INDEX 00 41:03:28
INDEX 01 41:05:33
TRACK 14 AUDIO
TITLE “The Long and Winding Road”
PERFORMER “The Beatles”
INDEX 00 44:49:60
INDEX 01 44:52:50


Leave a Reply

Your email address will not be published. Required fields are marked *

This site uses Akismet to reduce spam. Learn how your comment data is processed.