The Beatles – 1962 – 1966




Artist: The Beatles
Year: 1993
Genre: Rock
Notes: Discogs
Add. Notes:
Cover incl.: Yes
Encoder: FLAC
Bitrate: ~900 kBit/s (44.1 kHz/16 Bit/s)
Log & Cue incl.: Yes
Size: 430,31 MB
Password: “slam” (without ” “)


All Downloads/Hosters are compatible

Download 1
NitroFlare.com
KatFile.com
Turbobit.net
Rapidgator.net
UploadRar.com
Download 2
NitroFlare.com
KatFile.com
Turbobit.net
Rapidgator.net
UploadRar.com

Tracklist:

CD1 1 - Love Me Do - 2:18
CD1 2 - Please Please Me - 1:58
CD1 3 - From Me To You - 1:56
CD1 4 - She Loves You - 2:19
CD1 5 - I Want To Hold Your Hand - 2:23
CD1 6 - All My Loving - 2:04
CD1 7 - Can't Buy Me Love - 2:10
CD1 8 - A Hard Day's Night - 2:29
CD1 9 - And I Love Her - 2:28
CD1 10 - Eight Days A Week - 2:42
CD1 11 - I Feel Fine - 2:20
CD1 12 - Ticket To Ride - 3:03
CD1 13 - Yesterday - 2:04
CD2 1 - Help! - 2:33
CD2 2 - You've Got To Hide Your Love Away - 2:06
CD2 3 - We Can Work It Out - 2:12
CD2 4 - Day Tripper - 2:48
CD2 5 - Drive My Car - 2:27
CD2 6 - Norwegian Wood (This Bird Has Flown) - 2:02
CD2 7 - Nowhere Man - 2:40
CD2 8 - Michelle - 2:41
CD2 9 - In My Life - 2:22
CD2 10 - Girl - 2:27
CD2 11 - Paperback Writer - 2:15
CD2 12 - Eleanor Rigby - 2:03
CD2 13 - Yellow Submarine - 2:46

EAC-Log, CUE-Sheed & NFO:

Click to open spoiler
Exact Audio Copy V1.0 beta 3 from 29. August 2011

EAC extraction logfile from 23. August 2013, 16:40

The Beatles / 1962 – 1966 (Disc 2)

Used drive : PLEXTOR DVDR PX-891SA Adapter: 1 ID: 0

Read mode : Secure
Utilize accurate stream : Yes
Defeat audio cache : Yes
Make use of C2 pointers : No

Read offset correction : 6
Overread into Lead-In and Lead-Out : No
Fill up missing offset samples with silence : Yes
Delete leading and trailing silent blocks : No
Null samples used in CRC calculations : Yes
Used interface : Native Win32 interface for Win NT & 2000

Used output format : User Defined Encoder
Selected bitrate : 1024 kBit/s
Quality : High
Add ID3 tag : No
Command line compressor : C:\Program Files\Exact Audio Copy\Flac\flac.exe
Additional command line options : -V -8 -T “Genre=%genre%” -T “Artist=%artist%” -T “Title=%title%” -T “Album=%albumtitle%” -T “Date=%year%” -T “Tracknumber=%tracknr%” -T “Comment=%comment%” %source%

TOC of the extracted CD

Track | Start | Length | Start sector | End sector
———————————————————
1 | 0:00.33 | 2:20.17 | 33 | 10549
2 | 2:20.50 | 2:11.25 | 10550 | 20399
3 | 4:32.00 | 2:16.08 | 20400 | 30607
4 | 6:48.08 | 2:49.57 | 30608 | 43339
5 | 9:37.65 | 2:27.55 | 43340 | 54419
6 | 12:05.45 | 2:05.18 | 54420 | 63812
7 | 14:10.63 | 2:44.17 | 63813 | 76129
8 | 16:55.05 | 2:42.35 | 76130 | 88314
9 | 19:37.40 | 2:27.00 | 88315 | 99339
10 | 22:04.40 | 2:31.30 | 99340 | 110694
11 | 24:35.70 | 2:18.50 | 110695 | 121094
12 | 26:54.45 | 2:08.03 | 121095 | 130697
13 | 29:02.48 | 2:37.12 | 130698 | 142484

Range status and errors

Selected range

Filename I:\dafnaplus\Beatles 1962 – 1966\Disc 2\The Beatles – 1962 – 1966 (Disc 2).wav

Peak level 97.7 %
Extraction speed 7.1 X
Range quality 100.0 %
Test CRC 7BC02D0A
Copy CRC 7BC02D0A
Copy OK

No errors occurred

AccurateRip summary

Track 1 accurately ripped (confidence 200) [2283D0BD] (AR v2)
Track 2 accurately ripped (confidence 200) [CC2213EA] (AR v2)
Track 3 accurately ripped (confidence 200) [73590816] (AR v2)
Track 4 accurately ripped (confidence 200) [A8D35B97] (AR v2)
Track 5 accurately ripped (confidence 200) [043A644F] (AR v2)
Track 6 accurately ripped (confidence 200) [27B0CD0F] (AR v2)
Track 7 accurately ripped (confidence 200) [D841391C] (AR v2)
Track 8 accurately ripped (confidence 200) [C5181FBC] (AR v2)
Track 9 accurately ripped (confidence 200) [549151DB] (AR v2)
Track 10 accurately ripped (confidence 200) [9E9E7F2A] (AR v2)
Track 11 accurately ripped (confidence 200) [4DC1D1D7] (AR v2)
Track 12 accurately ripped (confidence 200) [417434E6] (AR v2)
Track 13 accurately ripped (confidence 200) [CFD43A7B] (AR v2)

All tracks accurately ripped

End of status report

==== Log checksum DC3EBC0A0844E1BCFA4D7CF65E17F3E464612658ED0469BE0DD7046951CA0135 ====

Exact Audio Copy V1.0 beta 3 from 29. August 2011

EAC extraction logfile from 23. August 2013, 16:26

The Beatles / 1962 – 1966 (Disc 1)

Used drive : PLEXTOR DVDR PX-891SA Adapter: 1 ID: 0

Read mode : Secure
Utilize accurate stream : Yes
Defeat audio cache : Yes
Make use of C2 pointers : No

Read offset correction : 6
Overread into Lead-In and Lead-Out : No
Fill up missing offset samples with silence : Yes
Delete leading and trailing silent blocks : No
Null samples used in CRC calculations : Yes
Used interface : Native Win32 interface for Win NT & 2000

Used output format : User Defined Encoder
Selected bitrate : 1024 kBit/s
Quality : High
Add ID3 tag : No
Command line compressor : C:\Program Files\Exact Audio Copy\Flac\flac.exe
Additional command line options : -V -8 -T “Genre=%genre%” -T “Artist=%artist%” -T “Title=%title%” -T “Album=%albumtitle%” -T “Date=%year%” -T “Tracknumber=%tracknr%” -T “Comment=%comment%” %source%

TOC of the extracted CD

Track | Start | Length | Start sector | End sector
———————————————————
1 | 0:00.33 | 2:24.12 | 33 | 10844
2 | 2:24.45 | 2:03.18 | 10845 | 20087
3 | 4:27.63 | 1:57.32 | 20088 | 28894
4 | 6:25.20 | 2:22.15 | 28895 | 39559
5 | 8:47.35 | 2:26.50 | 39560 | 50559
6 | 11:14.10 | 2:08.65 | 50560 | 60224
7 | 13:23.00 | 2:13.48 | 60225 | 70247
8 | 15:36.48 | 2:34.27 | 70248 | 81824
9 | 18:11.00 | 2:31.15 | 81825 | 93164
10 | 20:42.15 | 2:45.13 | 93165 | 105552
11 | 23:27.28 | 2:19.57 | 105553 | 116034
12 | 25:47.10 | 3:10.70 | 116035 | 130354
13 | 28:58.05 | 2:04.73 | 130355 | 139727

Range status and errors

Selected range

Filename I:\dafnaplus\Beatles 1962 – 1966\Disc 1\The Beatles – 1962 – 1966 (Disc 1).wav

Peak level 97.7 %
Extraction speed 7.0 X
Range quality 100.0 %
Test CRC 0FCC3C83
Copy CRC 0FCC3C83
Copy OK

No errors occurred

AccurateRip summary

Track 1 accurately ripped (confidence 200) [575DB8D1] (AR v2)
Track 2 accurately ripped (confidence 200) [E8B6DFEA] (AR v2)
Track 3 accurately ripped (confidence 200) [36D55E9D] (AR v2)
Track 4 accurately ripped (confidence 200) [78DC20F4] (AR v2)
Track 5 accurately ripped (confidence 200) [DFAE1961] (AR v2)
Track 6 accurately ripped (confidence 200) [1BB5C564] (AR v2)
Track 7 accurately ripped (confidence 200) [258A8BE3] (AR v2)
Track 8 accurately ripped (confidence 200) [49964883] (AR v2)
Track 9 accurately ripped (confidence 200) [83902391] (AR v2)
Track 10 accurately ripped (confidence 200) [BAE54D8C] (AR v2)
Track 11 accurately ripped (confidence 200) [BD11079F] (AR v2)
Track 12 accurately ripped (confidence 200) [EE47D7C6] (AR v2)
Track 13 accurately ripped (confidence 200) [7F9B5D8D] (AR v2)

All tracks accurately ripped

End of status report

==== Log checksum E09C01B81FD4AF080DC9638C34EAA755FF59758387AC8AFD9727EB91AB06DA7C ====

REM GENRE Rock
REM DATE 1993
REM DISCID A7076B0D
REM COMMENT “ExactAudioCopy v1.0b3”
PERFORMER “The Beatles”
TITLE “1962 – 1966 (Disc 2)”
FILE “The Beatles – 1962 – 1966 (Disc 2).flac” WAVE
TRACK 01 AUDIO
TITLE “Help!”
PERFORMER “The Beatles”
INDEX 00 00:00:00
INDEX 01 00:00:33
TRACK 02 AUDIO
TITLE “You’ve Got to Hide Your Love Away”
PERFORMER “The Beatles”
INDEX 00 02:18:28
INDEX 01 02:20:50
TRACK 03 AUDIO
TITLE “We Can Work it Out”
PERFORMER “The Beatles”
INDEX 00 04:29:20
INDEX 01 04:32:00
TRACK 04 AUDIO
TITLE “Day Tripper”
PERFORMER “The Beatles”
INDEX 00 06:46:30
INDEX 01 06:48:08
TRACK 05 AUDIO
TITLE “Drive my Car”
PERFORMER “The Beatles”
INDEX 00 09:35:43
INDEX 01 09:37:65
TRACK 06 AUDIO
TITLE “Norweigan Wood (This Bird Has Flown)”
PERFORMER “The Beatles”
INDEX 00 12:04:10
INDEX 01 12:05:45
TRACK 07 AUDIO
TITLE “Nowhere Man”
PERFORMER “The Beatles”
INDEX 00 14:09:15
INDEX 01 14:10:63
TRACK 08 AUDIO
TITLE “Michelle”
PERFORMER “The Beatles”
INDEX 00 16:53:48
INDEX 01 16:55:05
TRACK 09 AUDIO
TITLE “In My Life”
PERFORMER “The Beatles”
INDEX 00 19:35:45
INDEX 01 19:37:40
TRACK 10 AUDIO
TITLE “Girl”
PERFORMER “The Beatles”
INDEX 00 22:02:60
INDEX 01 22:04:40
TRACK 11 AUDIO
TITLE “Paperback Writer”
PERFORMER “The Beatles”
INDEX 00 24:35:05
INDEX 01 24:35:70
TRACK 12 AUDIO
TITLE “Eleanor Rigby”
PERFORMER “The Beatles”
INDEX 00 26:52:45
INDEX 01 26:54:45
TRACK 13 AUDIO
TITLE “Yellow Submarine”
PERFORMER “The Beatles”
INDEX 00 28:59:50
INDEX 01 29:02:48

REM GENRE Rock
REM DATE 1993
REM DISCID B907470D
REM COMMENT “ExactAudioCopy v1.0b3”
PERFORMER “The Beatles”
TITLE “1962 – 1966 (Disc 1)”
FILE “The Beatles – 1962 – 1966 (Disc 1).flac” WAVE
TRACK 01 AUDIO
TITLE “Love Me Do”
PERFORMER “The Beatles”
INDEX 00 00:00:00
INDEX 01 00:00:33
TRACK 02 AUDIO
TITLE “Please Please Me”
PERFORMER “The Beatles”
INDEX 00 02:20:70
INDEX 01 02:24:45
TRACK 03 AUDIO
TITLE “From Me To You”
PERFORMER “The Beatles”
INDEX 00 04:24:73
INDEX 01 04:27:63
TRACK 04 AUDIO
TITLE “She Loves You”
PERFORMER “The Beatles”
INDEX 00 06:23:53
INDEX 01 06:25:20
TRACK 05 AUDIO
TITLE “I Want To Hold Your Hand”
PERFORMER “The Beatles”
INDEX 00 08:45:05
INDEX 01 08:47:35
TRACK 06 AUDIO
TITLE “All My Loving”
PERFORMER “The Beatles”
INDEX 00 11:12:40
INDEX 01 11:14:10
TRACK 07 AUDIO
TITLE “Can’t Buy Me Love”
PERFORMER “The Beatles”
INDEX 00 13:20:73
INDEX 01 13:23:00
TRACK 08 AUDIO
TITLE “A Hard Day’s Night”
PERFORMER “The Beatles”
INDEX 00 15:33:50
INDEX 01 15:36:48
TRACK 09 AUDIO
TITLE “And I Love Her”
PERFORMER “The Beatles”
INDEX 00 18:08:18
INDEX 01 18:11:00
TRACK 10 AUDIO
TITLE “Eight Days A Week”
PERFORMER “The Beatles”
INDEX 00 20:39:65
INDEX 01 20:42:15
TRACK 11 AUDIO
TITLE “I Feel Fine”
PERFORMER “The Beatles”
INDEX 00 23:25:30
INDEX 01 23:27:28
TRACK 12 AUDIO
TITLE “Ticket To Ride”
PERFORMER “The Beatles”
INDEX 00 25:44:63
INDEX 01 25:47:10
TRACK 13 AUDIO
TITLE “Yesterday”
PERFORMER “The Beatles”
INDEX 00 28:56:05
INDEX 01 28:58:05


Leave a Reply

Your email address will not be published. Required fields are marked *

This site uses Akismet to reduce spam. Learn how your comment data is processed.