The Beatles – 1 (Remastered)




Artist: The Beatles
Year: 2000
Genre: Rock
Notes: Discogs
Add. Notes: Remastered
Cover incl.: Yes
Encoder: FLAC
Bitrate: ~900 kBit/s (44.1 kHz/16 Bit/s)
Log & Cue incl.: Yes
Size: 530,15 MB
Password: “slam” (without ” “)


All Downloads/Hosters are compatible

Download 1
Turbobit.net
Rapidgator.net
KatFile.com
UploadRar.com
Download 2
Turbobit.net
Rapidgator.net
KatFile.com
UploadRar.com

Tracklist:

1 - Love Me Do - 2:20
2 - From Me To You - 1:56
3 - She Loves You - 2:21
4 - I Want To Hold Your Hand - 2:24
5 - Can't Buy Me Love - 2:11
6 - A Hard Day's Night - 2:33
7 - I Feel Fine - 2:18
8 - Eight Days A Week - 2:44
9 - Ticket To Ride - 3:10
10 - Help! - 2:18
11 - Yesterday - 2:05
12 - Day Tripper - 2:48
13 - We Can Work It Out - 2:15
14 - Paperback Writer - 2:18
15 - Yellow Submarine - 2:38
16 - Eleanor Rigby - 2:06
17 - Penny Lane - 2:59
18 - All You Need Is Love - 3:47
19 - Hello Goodbye - 3:27
20 - Lady Madonna - 2:16
21 - Hey Jude - 7:04
22 - Get Back - 3:12
23 - The Ballad Of John And Yoko - 2:59
24 - Something - 3:01
25 - Come Together - 4:18
26 - Let It Be - 3:50
27 - The Long And Winding Road - 3:37

EAC-Log, CUE-Sheed & NFO:

Click to open spoiler
Exact Audio Copy V1.0 beta 3 from 29. August 2011

EAC extraction logfile from 23. August 2013, 20:26

The Beatles / 1

Used drive : PLEXTOR DVDR PX-891SA Adapter: 1 ID: 0

Read mode : Secure
Utilize accurate stream : Yes
Defeat audio cache : Yes
Make use of C2 pointers : No

Read offset correction : 6
Overread into Lead-In and Lead-Out : No
Fill up missing offset samples with silence : Yes
Delete leading and trailing silent blocks : No
Null samples used in CRC calculations : Yes
Used interface : Native Win32 interface for Win NT & 2000

Used output format : User Defined Encoder
Selected bitrate : 1024 kBit/s
Quality : High
Add ID3 tag : No
Command line compressor : C:\Program Files\Exact Audio Copy\Flac\flac.exe
Additional command line options : -V -8 -T “Genre=%genre%” -T “Artist=%artist%” -T “Title=%title%” -T “Album=%albumtitle%” -T “Date=%year%” -T “Tracknumber=%tracknr%” -T “Comment=%comment%” %source%

TOC of the extracted CD

Track | Start | Length | Start sector | End sector
———————————————————
1 | 0:00.00 | 2:20.55 | 0 | 10554
2 | 2:20.55 | 1:56.12 | 10555 | 19266
3 | 4:16.67 | 2:21.13 | 19267 | 29854
4 | 6:38.05 | 2:24.72 | 29855 | 40726
5 | 9:03.02 | 2:11.43 | 40727 | 50594
6 | 11:14.45 | 2:33.32 | 50595 | 62101
7 | 13:48.02 | 2:18.25 | 62102 | 72476
8 | 16:06.27 | 2:44.28 | 72477 | 84804
9 | 18:50.55 | 3:10.40 | 84805 | 99094
10 | 22:01.20 | 2:18.62 | 99095 | 109506
11 | 24:20.07 | 2:05.30 | 109507 | 118911
12 | 26:25.37 | 2:48.30 | 118912 | 131541
13 | 29:13.67 | 2:15.10 | 131542 | 141676
14 | 31:29.02 | 2:18.30 | 141677 | 152056
15 | 33:47.32 | 2:38.28 | 152057 | 163934
16 | 36:25.60 | 2:06.62 | 163935 | 173446
17 | 38:32.47 | 2:59.68 | 173447 | 186939
18 | 41:32.40 | 3:47.37 | 186940 | 204001
19 | 45:20.02 | 3:27.10 | 204002 | 219536
20 | 48:47.12 | 2:16.70 | 219537 | 229806
21 | 51:04.07 | 7:04.33 | 229807 | 261639
22 | 58:08.40 | 3:12.05 | 261640 | 276044
23 | 61:20.45 | 2:59.37 | 276045 | 289506
24 | 64:20.07 | 3:01.15 | 289507 | 303096
25 | 67:21.22 | 4:18.38 | 303097 | 322484
26 | 71:39.60 | 3:50.62 | 322485 | 339796
27 | 75:30.47 | 3:37.50 | 339797 | 356121

Range status and errors

Selected range

Filename I:\dafnaplus\Beatles – 1\Art\The Beatles – 1.wav

Peak level 99.1 %
Extraction speed 9.0 X
Range quality 99.9 %
Test CRC 82D4E8B1
Copy CRC 82D4E8B1
Copy OK

No errors occurred

AccurateRip summary

Track 1 accurately ripped (confidence 200) [9BC23C27] (AR v2)
Track 2 accurately ripped (confidence 200) [8808BECC] (AR v2)
Track 3 accurately ripped (confidence 200) [DA8A0C95] (AR v2)
Track 4 accurately ripped (confidence 200) [574E0770] (AR v2)
Track 5 accurately ripped (confidence 200) [0732DBA7] (AR v2)
Track 6 accurately ripped (confidence 200) [A4E3EF64] (AR v2)
Track 7 accurately ripped (confidence 200) [A382659E] (AR v2)
Track 8 accurately ripped (confidence 200) [B790320C] (AR v2)
Track 9 accurately ripped (confidence 200) [F9931171] (AR v2)
Track 10 accurately ripped (confidence 200) [1502873B] (AR v2)
Track 11 accurately ripped (confidence 200) [04B5A4FF] (AR v2)
Track 12 accurately ripped (confidence 200) [526FEA07] (AR v2)
Track 13 accurately ripped (confidence 200) [B231363D] (AR v2)
Track 14 accurately ripped (confidence 200) [D700F655] (AR v2)
Track 15 accurately ripped (confidence 200) [173EE500] (AR v2)
Track 16 accurately ripped (confidence 200) [F1363752] (AR v2)
Track 17 accurately ripped (confidence 200) [1C2F825D] (AR v2)
Track 18 accurately ripped (confidence 200) [19E5E66C] (AR v2)
Track 19 accurately ripped (confidence 200) [B6DAA8F3] (AR v2)
Track 20 accurately ripped (confidence 200) [5E5C3A5A] (AR v2)
Track 21 accurately ripped (confidence 200) [7750CFFE] (AR v2)
Track 22 accurately ripped (confidence 200) [41F772BF] (AR v2)
Track 23 accurately ripped (confidence 200) [DB498B0B] (AR v2)
Track 24 accurately ripped (confidence 200) [273DFF50] (AR v2)
Track 25 accurately ripped (confidence 200) [BFC51600] (AR v2)
Track 26 accurately ripped (confidence 200) [6648BC0E] (AR v2)
Track 27 accurately ripped (confidence 200) [D1629D47] (AR v2)

All tracks accurately ripped

End of status report

==== Log checksum 5590CF3EF9031C2B19F403C8EB5F352E382901EEFC1DC13BC4B28EAC843B79E2 ====

REM GENRE Rock
REM DATE 2000
REM DISCID 7C128C1B
REM COMMENT “ExactAudioCopy v1.0b3”
CATALOG 0724352932528
PERFORMER “The Beatles”
TITLE “1”
FILE “The Beatles – 1.flac” WAVE
TRACK 01 AUDIO
TITLE “Love Me Do”
PERFORMER “The Beatles”
ISRC GBAYE0000920
INDEX 01 00:00:00
TRACK 02 AUDIO
TITLE “From Me To You”
PERFORMER “The Beatles”
ISRC GBAYE0000921
INDEX 00 02:20:47
INDEX 01 02:20:55
TRACK 03 AUDIO
TITLE “She Loves You”
PERFORMER “The Beatles”
ISRC GBAYE0000922
INDEX 00 04:16:57
INDEX 01 04:16:67
TRACK 04 AUDIO
TITLE “I Want To Hold Your Hand”
PERFORMER “The Beatles”
ISRC GBAYE0000923
INDEX 01 06:38:05
TRACK 05 AUDIO
TITLE “Can’t Buy Me Love”
PERFORMER “The Beatles”
ISRC GBAYE0000924
INDEX 00 09:02:52
INDEX 01 09:03:02
TRACK 06 AUDIO
TITLE “A Hard Day’s Night”
PERFORMER “The Beatles”
ISRC GBAYE0000925
INDEX 00 11:14:20
INDEX 01 11:14:45
TRACK 07 AUDIO
TITLE “I Feel Fine”
PERFORMER “The Beatles”
ISRC GBAYE0000926
INDEX 00 13:47:42
INDEX 01 13:48:02
TRACK 08 AUDIO
TITLE “Eight Days A Week”
PERFORMER “The Beatles”
ISRC GBAYE0000927
INDEX 00 16:06:22
INDEX 01 16:06:27
TRACK 09 AUDIO
TITLE “Ticket To Ride”
PERFORMER “The Beatles”
ISRC GBAYE0000928
INDEX 00 18:50:17
INDEX 01 18:50:55
TRACK 10 AUDIO
TITLE “Help!”
PERFORMER “The Beatles”
ISRC GBAYE0000929
INDEX 00 22:00:72
INDEX 01 22:01:20
TRACK 11 AUDIO
TITLE “Yesterday”
PERFORMER “The Beatles”
ISRC GBAYE0000930
INDEX 00 24:19:02
INDEX 01 24:20:07
TRACK 12 AUDIO
TITLE “Day Tripper”
PERFORMER “The Beatles”
ISRC GBAYE0000931
INDEX 00 26:24:55
INDEX 01 26:25:37
TRACK 13 AUDIO
TITLE “We Can Work It Out”
PERFORMER “The Beatles”
ISRC GBAYE0000932
INDEX 00 29:12:20
INDEX 01 29:13:67
TRACK 14 AUDIO
TITLE “Paperback Writer”
PERFORMER “The Beatles”
ISRC GBAYE0000933
INDEX 00 31:28:37
INDEX 01 31:29:02
TRACK 15 AUDIO
TITLE “Yellow Submarine”
PERFORMER “The Beatles”
ISRC GBAYE0000934
INDEX 00 33:47:07
INDEX 01 33:47:32
TRACK 16 AUDIO
TITLE “Eleanor Rigby”
PERFORMER “The Beatles”
ISRC GBAYE0000935
INDEX 00 36:25:50
INDEX 01 36:25:60
TRACK 17 AUDIO
TITLE “Penny Lane”
PERFORMER “The Beatles”
ISRC GBAYE0000936
INDEX 01 38:32:47
TRACK 18 AUDIO
TITLE “All You Need Is Love”
PERFORMER “The Beatles”
ISRC GBAYE0000937
INDEX 00 41:31:57
INDEX 01 41:32:40
TRACK 19 AUDIO
TITLE “Hello, Goodbye”
PERFORMER “The Beatles”
ISRC GBAYE0000938
INDEX 00 45:19:57
INDEX 01 45:20:02
TRACK 20 AUDIO
TITLE “Lady Madonna”
PERFORMER “The Beatles”
ISRC GBAYE0000939
INDEX 00 48:46:55
INDEX 01 48:47:12
TRACK 21 AUDIO
TITLE “Hey Jude”
PERFORMER “The Beatles”
ISRC GBAYE0000940
INDEX 00 51:02:45
INDEX 01 51:04:07
TRACK 22 AUDIO
TITLE “Get Back”
PERFORMER “The Beatles”
ISRC GBAYE0000941
INDEX 00 58:08:35
INDEX 01 58:08:40
TRACK 23 AUDIO
TITLE “The Ballad Of John And Yoko”
PERFORMER “The Beatles”
ISRC GBAYE0000942
INDEX 00 61:20:25
INDEX 01 61:20:45
TRACK 24 AUDIO
TITLE “Something”
PERFORMER “The Beatles”
ISRC GBAYE0000943
INDEX 00 64:19:57
INDEX 01 64:20:07
TRACK 25 AUDIO
TITLE “Come Together”
PERFORMER “The Beatles”
ISRC GBAYE0000944
INDEX 00 67:20:27
INDEX 01 67:21:22
TRACK 26 AUDIO
TITLE “Let It Be”
PERFORMER “The Beatles”
ISRC GBAYE0000945
INDEX 00 71:39:15
INDEX 01 71:39:60
TRACK 27 AUDIO
TITLE “The Long And Winding Road”
PERFORMER “The Beatles”
ISRC GBAYE0000946
INDEX 00 75:29:62
INDEX 01 75:30:47


Leave a Reply

Your email address will not be published. Required fields are marked *

This site uses Akismet to reduce spam. Learn how your comment data is processed.