The Beatles – 09.09.09 Sampler




[Total: 0    Average: 0/5]

Artist: The Beatles
Year: 2009
Genre: Rock
Notes: Discogs
Add. Notes:
Cover incl.: Yes
Encoder: FLAC
Bitrate: ~900 kBit/s (44.1 kHz/16 Bit/s)
Log & Cue incl.: Yes
Size: 555,61 MB
Password: “slam” (without ” “)


All Downloads/Hosters are compatible

Download 1
Share-online.biz
KatFile.com
Rapidgator.net
NitroFlare.com
Download 2
Share-online.biz
KatFile.com
Rapidgator.net
NitroFlare.com

Tracklist:

1-1. I Saw Her Standing There 	
1-2. I Wanna Be Your Man 	
1-3. This Boy 	
1-4. Things We Said Today 	
1-5. Eight Days A Week 	
1-6. You've Got To Hide Your Love Away 	
1-7. If I Needed Someone 	
1-8. Rain 	
1-9. Here, There And Everywhere 	
1-10. Being For The Benefit Of Mr. Kite! 	
1-11. The Fool On The Hill 	
1-12. Glass Onion 	
1-13. Mother Nature's Son 	
1-14. Hey Bulldog 	
1-15. Something 	
1-16. Two Of Us 	

2-1. Please Please Me 	
2-2. All My Loving 	
2-3. If I Fell 	
2-4. Honey Don't 	
2-5. I'm Down 	
2-6. I Need You 	
2-7. Day Tripper 	
2-8. Drive My Car 	
2-9. And Your Bird Can Sing 	
2-10. She's Leaving Home 	
2-11. I Am The Walrus 	
2-12. Back In The U.S.S.R. 	
2-13. Long, Long, Long 	
2-14. All Together Now 	
2-15. Come Together 	
2-16. I've Got A Feeling

EAC-Log, CUE-Sheed & NFO:

Click to open spoiler
Exact Audio Copy V1.0 beta 3 from 29. August 2011

EAC extraction logfile from 18. December 2015, 9:53

The Beatles / 090909 Sampler (CD 1)

Used drive : HL-DT-STDVD+-RW GH50N Adapter: 0 ID: 0

Read mode : Secure
Utilize accurate stream : Yes
Defeat audio cache : Yes
Make use of C2 pointers : No

Read offset correction : 667
Overread into Lead-In and Lead-Out : No
Fill up missing offset samples with silence : Yes
Delete leading and trailing silent blocks : No
Null samples used in CRC calculations : Yes
Used interface : Native Win32 interface for Win NT & 2000

Used output format : User Defined Encoder
Selected bitrate : 768 kBit/s
Quality : High
Add ID3 tag : No
Command line compressor : C:\Program Files (x86)\Exact Audio Copy\FLAC\FLAC.EXE
Additional command line options : -V -8 -T “Date=%year%” -T “Genre=%genre%” %source%

TOC of the extracted CD

Track | Start | Length | Start sector | End sector
———————————————————
1 | 0:00.00 | 2:53.54 | 0 | 13028
2 | 2:53.54 | 1:59.62 | 13029 | 22015
3 | 4:53.41 | 2:15.45 | 22016 | 32185
4 | 7:09.11 | 2:35.52 | 32186 | 43862
5 | 9:44.63 | 2:43.38 | 43863 | 56125
6 | 12:28.26 | 2:09.10 | 56126 | 65810
7 | 14:37.36 | 2:21.55 | 65811 | 76440
8 | 16:59.16 | 3:01.46 | 76441 | 90061
9 | 20:00.62 | 2:23.51 | 90062 | 100837
10 | 22:24.38 | 2:38.13 | 100838 | 112700
11 | 25:02.51 | 2:58.15 | 112701 | 126065
12 | 28:00.66 | 2:19.03 | 126066 | 136493
13 | 30:19.69 | 2:48.68 | 136494 | 149161
14 | 33:08.62 | 3:11.00 | 149162 | 163486
15 | 36:19.62 | 3:01.61 | 163487 | 177122
16 | 39:21.48 | 3:37.58 | 177123 | 193455

Range status and errors

Selected range

Filename C:\222\MIX\2009 – The Beatles – 090909 Sampler\CD1\The Beatles – 090909 Sampler (CD 1).wav

Peak level 96.2 %
Extraction speed 3.0 X
Range quality 100.0 %
Test CRC E24C9160
Copy CRC E24C9160
Copy OK

No errors occurred

AccurateRip summary

Track 1 accurately ripped (confidence 2) [C8CF93E0] (AR v2)
Track 2 accurately ripped (confidence 2) [4874E434] (AR v2)
Track 3 accurately ripped (confidence 2) [1C73B61D] (AR v2)
Track 4 accurately ripped (confidence 2) [061DBED5] (AR v2)
Track 5 accurately ripped (confidence 2) [A2C93803] (AR v2)
Track 6 accurately ripped (confidence 2) [FA865A7A] (AR v2)
Track 7 accurately ripped (confidence 2) [926EACAA] (AR v2)
Track 8 accurately ripped (confidence 2) [52404CFC] (AR v2)
Track 9 accurately ripped (confidence 2) [39855616] (AR v2)
Track 10 accurately ripped (confidence 2) [78E00F68] (AR v2)
Track 11 accurately ripped (confidence 3) [2470C2FE] (AR v2)
Track 12 accurately ripped (confidence 2) [259ECF00] (AR v2)
Track 13 accurately ripped (confidence 5) [2433C9C6] (AR v1)
Track 14 accurately ripped (confidence 5) [D86219CF] (AR v1)
Track 15 accurately ripped (confidence 2) [B3D94A60] (AR v2)
Track 16 accurately ripped (confidence 2) [FE32326A] (AR v2)

All tracks accurately ripped

End of status report

==== Log checksum A0E42F4F62F23A95FFFBA1B180AE50A7D9BFDDF30B4F4CC308316EFA993DCC43 ====

Exact Audio Copy V1.0 beta 3 from 29. August 2011

EAC extraction logfile from 18. December 2015, 10:26

The Beatles / 090909 Sampler (CD 2)

Used drive : HL-DT-STDVD+-RW GH50N Adapter: 0 ID: 0

Read mode : Secure
Utilize accurate stream : Yes
Defeat audio cache : Yes
Make use of C2 pointers : No

Read offset correction : 667
Overread into Lead-In and Lead-Out : No
Fill up missing offset samples with silence : Yes
Delete leading and trailing silent blocks : No
Null samples used in CRC calculations : Yes
Used interface : Native Win32 interface for Win NT & 2000

Used output format : User Defined Encoder
Selected bitrate : 768 kBit/s
Quality : High
Add ID3 tag : No
Command line compressor : C:\Program Files (x86)\Exact Audio Copy\FLAC\FLAC.EXE
Additional command line options : -V -8 -T “Date=%year%” -T “Genre=%genre%” %source%

TOC of the extracted CD

Track | Start | Length | Start sector | End sector
———————————————————
1 | 0:00.00 | 2:00.27 | 0 | 9026
2 | 2:00.27 | 2:07.48 | 9027 | 18599
3 | 4:08.00 | 2:18.39 | 18600 | 28988
4 | 6:26.39 | 2:57.50 | 28989 | 42313
5 | 9:24.14 | 2:32.16 | 42314 | 53729
6 | 11:56.30 | 2:29.28 | 53730 | 64932
7 | 14:25.58 | 2:48.22 | 64933 | 77554
8 | 17:14.05 | 2:28.09 | 77555 | 88663
9 | 19:42.14 | 1:59.70 | 88664 | 97658
10 | 21:42.09 | 3:36.26 | 97659 | 113884
11 | 25:18.35 | 4:34.13 | 113885 | 134447
12 | 29:52.48 | 2:45.09 | 134448 | 146831
13 | 32:37.57 | 3:05.27 | 146832 | 160733
14 | 35:43.09 | 2:11.18 | 160734 | 170576
15 | 37:54.27 | 4:18.14 | 170577 | 189940
16 | 42:12.41 | 3:39.44 | 189941 | 206409

Range status and errors

Selected range

Filename C:\222\MIX\2009 – The Beatles – 090909 Sampler\CD2\The Beatles – 090909 Sampler (CD 2).wav

Peak level 96.8 %
Extraction speed 3.0 X
Range quality 100.0 %
Test CRC 8ECEB5C0
Copy CRC 8ECEB5C0
Copy OK

No errors occurred

AccurateRip summary

Track 1 accurately ripped (confidence 2) [BBFF7255] (AR v2)
Track 2 accurately ripped (confidence 2) [F3B1EB5B] (AR v2)
Track 3 accurately ripped (confidence 2) [EAB7B23A] (AR v2)
Track 4 accurately ripped (confidence 3) [052ED512] (AR v2)
Track 5 accurately ripped (confidence 2) [1CB0F6DD] (AR v2)
Track 6 accurately ripped (confidence 2) [9153C09C] (AR v2)
Track 7 accurately ripped (confidence 3) [D6BE5F20] (AR v2)
Track 8 accurately ripped (confidence 3) [2B0CB238] (AR v2)
Track 9 accurately ripped (confidence 2) [7DAC846D] (AR v2)
Track 10 accurately ripped (confidence 3) [05D6524C] (AR v2)
Track 11 accurately ripped (confidence 2) [9A0FF68C] (AR v2)
Track 12 accurately ripped (confidence 3) [9F1D7881] (AR v2)
Track 13 accurately ripped (confidence 2) [5AAFA7A7] (AR v2)
Track 14 accurately ripped (confidence 2) [BA516B63] (AR v2)
Track 15 accurately ripped (confidence 3) [F6B70D1B] (AR v2)
Track 16 accurately ripped (confidence 2) [55283843] (AR v2)

All tracks accurately ripped

End of status report

==== Log checksum 25EE5B8E283009CD7124AA0BC51404C5901599CF1CEE0BCBF0A63F05E49F8B6F ====

REM GENRE “Classic Rock”
REM DATE 2009
REM DISCID C90A1310
REM COMMENT “ExactAudioCopy v1.0b3”
PERFORMER “The Beatles”
TITLE “090909 Sampler (CD 1)”
FILE “The Beatles – 090909 Sampler (CD 1).flac” WAVE
TRACK 01 AUDIO
TITLE “I Saw Her Standing There”
PERFORMER “The Beatles”
INDEX 01 00:00:00
TRACK 02 AUDIO
TITLE “I Wanna Be Your Man”
PERFORMER “The Beatles”
INDEX 00 02:52:58
INDEX 01 02:53:54
TRACK 03 AUDIO
TITLE “This Boy”
PERFORMER “The Beatles”
INDEX 00 04:53:07
INDEX 01 04:53:41
TRACK 04 AUDIO
TITLE “Things We Said Today”
PERFORMER “The Beatles”
INDEX 00 07:08:73
INDEX 01 07:09:11
TRACK 05 AUDIO
TITLE “Eight Days A Week”
PERFORMER “The Beatles”
INDEX 00 09:44:00
INDEX 01 09:44:63
TRACK 06 AUDIO
TITLE “You’ve Got To Hide Your Love Away”
PERFORMER “The Beatles”
INDEX 00 12:27:53
INDEX 01 12:28:26
TRACK 07 AUDIO
TITLE “If I Needed Someone”
PERFORMER “The Beatles”
INDEX 00 14:37:04
INDEX 01 14:37:36
TRACK 08 AUDIO
TITLE “Rain”
PERFORMER “The Beatles”
INDEX 00 16:58:50
INDEX 01 16:59:16
TRACK 09 AUDIO
TITLE “Here, There And Everywhere”
PERFORMER “The Beatles”
INDEX 00 19:59:54
INDEX 01 20:00:62
TRACK 10 AUDIO
TITLE “Being For The Benefit Of Mr.Kite!”
PERFORMER “The Beatles”
INDEX 00 22:24:11
INDEX 01 22:24:38
TRACK 11 AUDIO
TITLE “The Fool On The Hill”
PERFORMER “The Beatles”
INDEX 00 25:01:37
INDEX 01 25:02:51
TRACK 12 AUDIO
TITLE “Glass Onion”
PERFORMER “The Beatles”
INDEX 00 28:00:42
INDEX 01 28:00:66
TRACK 13 AUDIO
TITLE “Mother Nature’s Son”
PERFORMER “The Beatles”
INDEX 00 30:19:02
INDEX 01 30:19:69
TRACK 14 AUDIO
TITLE “Hey Bulldog”
PERFORMER “The Beatles”
INDEX 00 33:08:17
INDEX 01 33:08:62
TRACK 15 AUDIO
TITLE “Something”
PERFORMER “The Beatles”
INDEX 01 36:19:62
TRACK 16 AUDIO
TITLE “Two Of Us”
PERFORMER “The Beatles”
INDEX 00 39:21:12
INDEX 01 39:21:48

REM GENRE “Classic Rock”
REM DATE 2009
REM DISCID D70AC010
REM COMMENT “ExactAudioCopy v1.0b3”
PERFORMER “The Beatles”
TITLE “090909 Sampler (CD 2)”
FILE “The Beatles – 090909 Sampler (CD 2).flac” WAVE
TRACK 01 AUDIO
TITLE “Please Please Me”
PERFORMER “The Beatles”
INDEX 01 00:00:00
TRACK 02 AUDIO
TITLE “All My Loving”
PERFORMER “The Beatles”
INDEX 00 02:00:19
INDEX 01 02:00:27
TRACK 03 AUDIO
TITLE “If I Fell”
PERFORMER “The Beatles”
INDEX 00 04:07:40
INDEX 01 04:08:00
TRACK 04 AUDIO
TITLE “Honey Don’t”
PERFORMER “The Beatles”
INDEX 00 06:26:21
INDEX 01 06:26:39
TRACK 05 AUDIO
TITLE “I’m Down”
PERFORMER “The Beatles”
INDEX 00 09:23:65
INDEX 01 09:24:14
TRACK 06 AUDIO
TITLE “I Need You”
PERFORMER “The Beatles”
INDEX 00 11:56:16
INDEX 01 11:56:30
TRACK 07 AUDIO
TITLE “Day Tripper”
PERFORMER “The Beatles”
INDEX 00 14:25:00
INDEX 01 14:25:58
TRACK 08 AUDIO
TITLE “Drive My Car”
PERFORMER “The Beatles”
INDEX 00 17:13:67
INDEX 01 17:14:05
TRACK 09 AUDIO
TITLE “And Your Bird Can Sing”
PERFORMER “The Beatles”
INDEX 00 19:41:38
INDEX 01 19:42:14
TRACK 10 AUDIO
TITLE “She’s Leaving Home”
PERFORMER “The Beatles”
INDEX 00 21:41:43
INDEX 01 21:42:09
TRACK 11 AUDIO
TITLE “I Am The Walrus”
PERFORMER “The Beatles”
INDEX 00 25:17:41
INDEX 01 25:18:35
TRACK 12 AUDIO
TITLE “Back In The U.S.S.R.”
PERFORMER “The Beatles”
INDEX 01 29:52:48
TRACK 13 AUDIO
TITLE “Long, Long, Long”
PERFORMER “The Beatles”
INDEX 00 32:36:07
INDEX 01 32:37:57
TRACK 14 AUDIO
TITLE “All Together Now”
PERFORMER “The Beatles”
INDEX 00 35:42:44
INDEX 01 35:43:09
TRACK 15 AUDIO
TITLE “Come Together”
PERFORMER “The Beatles”
INDEX 00 37:54:20
INDEX 01 37:54:27
TRACK 16 AUDIO
TITLE “I’ve Got A Feeling”
PERFORMER “The Beatles”
INDEX 00 42:12:31
INDEX 01 42:12:41


Spread the Download

Leave a Reply

Your email address will not be published. Required fields are marked *

Enter the text from the image below
 

This site uses Akismet to reduce spam. Learn how your comment data is processed.